Ссылка на приватное зеркало нашего сайта всего за 1$. Внимание количество ограничено!!!

2 сезон

iTunes

1 сезон

1

iTunes

iTunes

iTunes

1 сезон

RePack

30

ИГРА 18+

pack

ВАЖНО

!!Акция!!

Alien_RageХит недели

RePack

MK11
pack

Забери бонус

RePack

jed

!!Акция!!

Alien_Rage

RePack

fifa19

RePack

Assassins Creed: Odyssey

RePack

NEED FOR SPEED™ PAYBACK

4 сезон

9 сезон

Бесстыжие 9 сезон

Все сериалы

все сериалы на PB.wtf

RePack

FAR CRY 5
  

Седьмые врата ада / ...E tu vivrai nel terrore! L'aldilà (Лучио Фульчи) [1981, ужасы, BDRip 720p] MVO, AVO, VO pb.wtf

Седьмые врата ада через торрент pb.wtf

Размер: 3.91 GB | Добавлен: 5 лет 6 мес. назад | Торрент скачан:71 раз
Скачать  

20-04-2015 07:37 Седьмые врата ада Скачать торрент  


Название: Седьмые врата ада
Оригинальное название: ...E tu vivrai nel terrore! L'aldilà
Год выпуска: 1981
Страна: Италия
Жанр: ужасы
Продолжительность: 01:27:53
Перевод: Профессиональный многоголосый, авторский, одноголосый закадровый

Режиссёр: Лучио Фульчи

В ролях: Катриона МакКолл, Дэвид Уорбек, Чинция Монреале, Антуан Сент-Джон, Вероника Лазар, Энтони Флис, Джованни Де Нава, Эл Клайвер, Мишель Мирабелла, Джанпаоло Саккарола

Описание: 1927 год, штат Луизиана. Одинокий отель на окраине Нового Орлеана. У входа собираются люди, вооружённые цепями и прочим холодным и огнестрельным оружием. Они врываются в комнату номер 36, которую снимает художник Швейк. Его обвиняют в связях с сатаной, жестоко избивают цепями, приколачивают гвоздями к стене в подвале, обливают кислотой и замуровывают...



Качество: BDRip 720p Сравнение с исходником
Формат: MKV
Видео кодек: H.264
Аудио кодек: AC3
Видео: MPEG-4 AVC, 4457 Кбит/с, 1280x534, 23,976 кадра/с
Аудио 1: русский, AC3, 448 kbps, 6 ch, 48 kHz [профессиональный многоголосый, лицензия]
Аудио 2: русский, AC3, 448 kbps, 6 ch, 48 kHz [авторский, Юрий Живов]
Аудио 3: русский, AC3, 448 kbps, 6 ch, 48 kHz [одноголосый закадровый, Антон Костюкевич]
Аудио 4: английский, AC3, 448 kbps, 6 ch, 48 kHz [оригинал]
Субтитры: русские
frame I:713 Avg QP:19.98 size: 76653
frame P:22754 Avg QP:21.48 size: 44283
frame B:102972 Avg QP:24.02 size: 19010

Общее
Уникальный идентификатор : 232682292022138113722025376992334089667 (0xAF0CFAB8373AAB5DA88CAEEC8C328DC3)
Полное имя : D:VideoСедьмые врата ада.1981.BDRip.720p.mkv
Формат : Matroska
Версия формата : Version 4 / Version 2
Размер файла : 3,91 Гбайт
Продолжительность : 1 ч. 27 м.
Общий поток : 6376 Кбит/сек
Название фильма : BDRip -- STarankov
Дата кодирования : UTC 2015-04-20 05:48:32
Программа кодирования : mkvmerge v7.8.0 ('River Man') 64bit built on Mar 27 2015 16:31:37
Библиотека кодирования : libebml v1.3.1 + libmatroska v1.4.2
_STATISTICS_WRITING_APP : mkvmerge v7.8.0 ('River Man') 64bit built on Mar 27 2015 16:31:37
_STATISTICS_WRITING_DATE_UTC : 2015-04-20 05:48:32
_STATISTICS_TAGS : BPS DURATION NUMBER_OF_FRAMES NUMBER_OF_BYTES
DURATION : 01:23:12.528000000
NUMBER_OF_FRAMES : 340
NUMBER_OF_BYTES : 20865

Видео
Идентификатор : 1
Формат : AVC
Формат/Информация : Advanced Video Codec
Профиль формата : High@L4.1
Параметр CABAC формата : Да
Параметр ReFrames формата : 9 кадров
Идентификатор кодека : V_MPEG4/ISO/AVC
Продолжительность : 1 ч. 27 м.
Битрейт : 4457 Кбит/сек
Ширина : 1280 пикселей
Высота : 534 пикселя
Соотношение сторон : 2,40:1
Режим частоты кадров : Постоянный
Частота кадров : 23,976 кадра/сек
Цветовое пространство : YUV
Субдискретизация насыщенности : 4:2:0
Битовая глубина : 8 бит
Тип развёртки : Прогрессивная
Бит/(Пиксели*Кадры) : 0.272
Размер потока : 2,74 Гбайт (70%)
Библиотека кодирования : x264 core 146 r2538 121396c
Настройки программы : cabac=1 / ref=9 / deblock=1:-1:-1 / analyse=0x3:0x113 / me=umh / subme=10 / psy=1 / psy_rd=1.00:0.15 / mixed_ref=1 / me_range=32 / chroma_me=1 / trellis=2 / 8x8dct=1 / cqm=0 / deadzone=21,11 / fast_pskip=1 / chroma_qp_offset=-3 / threads=6 / lookahead_threads=1 / sliced_threads=0 / nr=0 / decimate=1 / interlaced=0 / bluray_compat=0 / constrained_intra=0 / bframes=11 / b_pyramid=2 / b_adapt=2 / b_bias=0 / direct=1 / weightb=1 / open_gop=0 / weightp=2 / keyint=230 / keyint_min=23 / scenecut=40 / intra_refresh=0 / rc_lookahead=40 / rc=crf / mbtree=0 / crf=21.0 / qcomp=0.60 / qpmin=0 / qpmax=69 / qpstep=4 / vbv_maxrate=40000 / vbv_bufsize=50000 / crf_max=0.0 / nal_hrd=none / filler=0 / ip_ratio=1.40 / pb_ratio=1.30 / aq=1:1.00
Язык : English
Default : Да
Forced : Нет
DURATION : 01:27:53.560000000
NUMBER_OF_FRAMES : 126439
NUMBER_OF_BYTES : 3019810683
_STATISTICS_WRITING_APP : mkvmerge v7.8.0 ('River Man') 64bit built on Mar 27 2015 16:31:37
_STATISTICS_WRITING_DATE_UTC : 2015-04-20 05:48:32
_STATISTICS_TAGS : BPS DURATION NUMBER_OF_FRAMES NUMBER_OF_BYTES

Аудио #1
Идентификатор : 2
Формат : AC-3
Формат/Информация : Audio Coding 3
Расширение режима : CM (complete main)
Параметр Endianness формата : Big
Идентификатор кодека : A_AC3
Продолжительность : 1 ч. 27 м.
Вид битрейта : Постоянный
Битрейт : 448 Кбит/сек
Каналы : 6 каналов
Расположение каналов : Front: L C R, Side: L R, LFE
Частота : 48,0 КГц
Битовая глубина : 16 бит
Метод сжатия : С потерями
Размер потока : 282 Мбайт (7%)
Заголовок : MVO (лицензия)
Язык : Russian
Default : Да
Forced : Нет

Аудио #2
Идентификатор : 3
Формат : AC-3
Формат/Информация : Audio Coding 3
Расширение режима : CM (complete main)
Параметр Endianness формата : Big
Идентификатор кодека : A_AC3
Продолжительность : 1 ч. 27 м.
Вид битрейта : Постоянный
Битрейт : 448 Кбит/сек
Каналы : 6 каналов
Расположение каналов : Front: L C R, Side: L R, LFE
Частота : 48,0 КГц
Битовая глубина : 16 бит
Метод сжатия : С потерями
Размер потока : 282 Мбайт (7%)
Заголовок : AVO (Юрий Живов)
Язык : Russian
Default : Нет
Forced : Нет

Аудио #3
Идентификатор : 4
Формат : AC-3
Формат/Информация : Audio Coding 3
Расширение режима : CM (complete main)
Параметр Endianness формата : Big
Идентификатор кодека : A_AC3
Продолжительность : 1 ч. 27 м.
Вид битрейта : Постоянный
Битрейт : 448 Кбит/сек
Каналы : 6 каналов
Расположение каналов : Front: L C R, Side: L R, LFE
Частота : 48,0 КГц
Битовая глубина : 16 бит
Метод сжатия : С потерями
Размер потока : 282 Мбайт (7%)
Заголовок : AVO (Антон Костюкевич)
Язык : Russian
Default : Нет
Forced : Нет

Аудио #4
Идентификатор : 5
Формат : AC-3
Формат/Информация : Audio Coding 3
Расширение режима : CM (complete main)
Параметр Endianness формата : Big
Идентификатор кодека : A_AC3
Продолжительность : 1 ч. 27 м.
Вид битрейта : Постоянный
Битрейт : 448 Кбит/сек
Каналы : 6 каналов
Расположение каналов : Front: L C R, Side: L R, LFE
Частота : 48,0 КГц
Битовая глубина : 16 бит
Метод сжатия : С потерями
Размер потока : 282 Мбайт (7%)
Заголовок : Original
Язык : English
Default : Нет
Forced : Нет

Текст
Идентификатор : 6
Формат : UTF-8
Идентификатор кодека : S_TEXT/UTF8
Идентификатор кодека/Информация : UTF-8 Plain Text
Заголовок : русские
Язык : Russian
Default : Нет
Forced : Нет
pb.wtf



Скачать Седьмые врата ада через торрент http://i48.fastpic.ru/big/2015/0419/4f/79f532290694ef64b2dd846b7c1c1b4f.jpg Скачать фильм Седьмые врата ада через торрент бесплантно в хорошем качестве Описание: 1927 год, штат Луизиана. Одинокий отель на окраине Нового Орлеана. У входа собираются люди, вооружённые цепями и прочим холодным ... 8.8 10 8
Торрент: Зарегистрирован [2015-04-20 07:37] · скачан: 71 раз
Статус: √ проверено
Размер: 3.91 GB
Как cкачать? Как скачать Седьмые врата ада через торрент | qTorrent



Последний раз редактировалось: msltel (2015-04-21 11:30), всего редактировалось 1 раз

28-11-2019 20:33  

Отключить всю рекламу на сайте

20-04-2015 15:09 Седьмые врата ада Скачать торрент  

Фильм моего детства! Спасибо.pb.wtf



    Дорогой пользователь! Огромная просьба, поблагодарите релизера, оцените раздачу и оставьте свои комментарий, если Вы скачали Седьмые врата ада через торрент бесплатно! Внесите свою лепту в развитие PiratBit!
    Комментировать посты могут только пользователи прошедшие не сложную регистрацию
    Показать сообщения:    

    Седьмые врата ада через торрент
    Скачать бесплатно Седьмые врата ада
    Седьмые врата ада скачать торрент
    Седьмые врата ада смотреть онлайн
    Cкачать фильм Седьмые врата ада бесплатно
    Седьмые врата ада скачать торрент в хорошем качестве
    Седьмые врата ада смотреть онлайн бесплатно в хорошем качестве


    Вы не можете начинать темы
    Вы не можете отвечать на сообщения
    Вы не можете редактировать свои сообщения
    Вы не можете удалять свои сообщения
    Вы не можете голосовать в опросах
    Вы не можете прикреплять файлы к сообщениям
    Вы можете скачивать файлы