Присоединяйтесь к нам в Telegram!, здесь всегда актуальный адрес сайта, оперативная поддержка и многое другое!!

>

5.9

iTunes

7.4

iTunes

9.4

1 сезон

1

7.4

2 сезон

7.2

iTunes

7.3

1 сезон

13

6.1

iTunes

8.3

GOG

30

ULTIMATE

pack

9.9

Лицензия

ВАЖНО

ИГРА 18+

pack

7.3

RePack

MK11

7.7

RePack

jed

7.8

RePack

fifa19

8.5

RePack

RDR2

RePack

NEED FOR SPEED™ PAYBACK

5 сезон

9 сезон

Бесстыжие 9 сезон

Все сериалы

все сериалы на PB.wtf

RePack

FAR CRY 5

Anonymous, доброй ночи, мы катастрофически не успеваем собрать деньги на оплату серверов, помогите нам пожалуйста 5,10,15р., для нас важна любая помощь . В качестве благодарности мы отключим Вам всю рекламу на сайте (укажите свой ник в строку Ваше имя)!

×
  
Magnet ссылка

Эти вкусные красивые девушки / These beautiful delicious girls vol.3 [2015 г., Adult erotic music clips, WEB-DLRip 1080p, Оригинал] pb.wtf

Эти вкусные красивые девушки через торрент pb.wtf

Размер: 4.41 GB | Добавлен: 6 лет 7 мес. назад | Торрент скачан:389 раз
Смотреть онлайн Эти вкусные красивые девушки | Скачать    Ребята, помогите собрать деньги на оплату серверов!!!

20-04-2015 08:52 Эти вкусные красивые девушки Скачать торрент  

Эти вкусные красивые девушки / These beautiful delicious girls vol.3
Год выпуска: 2015
Страна: All World
Жанр: Adult erotic music clips
Продолжительность: 03:14:05
Перевод: Оригинал

Описание:
Красивые и просто сексуально эротические клипы с прекрасными девушками и чудесной музыкой.... vol.3
01. Quinn - Zavites [04:15]
02. Ribetza - Hilaria [06:01]
03. Kira Joy - Hypnotica [05:21]
04. Alexandra - Clublife [05:22]
05. 420 - Baked Burgundy [03:28]
06. Oretha Mars - Szerepet [05:06]
07. Nedda - All Natural [05:41]
08. Loreen - Selho [05:08]
09. Taissia - Gentilla [04:03]
10. Flavia - Eastasi [04:30]
11. Alysha - Seduisante [04:13]
12. Nikia - Principessa [04:53]
13. Boca Santa - Bronha - So a Cinco [04:58]
14. Elizabeth Marxs [03:33]
15. Anastasia - Photosession [03:05]
16. Zelda - Bona [05:52]
17. Nevena Nensy - Hot [03:33]
18. Feeona - Go Outside [04:42]
19. Luciana - Seacoast [04:36]
20. Anna - Ruburana [04:23]
21. Gia - Elementas [03:08]
22. Rina - Das Model [04:09]
23. Taissia - Meet Me [06:46]
24. Astrud - Aguas De Marco [05:14]
25. Kira Joy - My Name Is Kira [04:54]
26. I try give you what you like [01:44]
27. Gabriela - Teasen [05:25]
28. Luciana A - Ouranos [09:00]
29. Sandra Lauver - Oszelcsabita [05:10]
30. Astrud - Verde [05:39]
31. Wanda - Sweetsweet [03:33]
32. Guerlain & Irina J [06:36]
33. La Voce Dell'eros [03:45]
34. Irina - Dereven [04:36]
35. Vittoria Amada - Mamecu [03:53]
36. Jaime & Lina Diamond - If Only [04:51]
37. Luciana A - Summer Love [09:57]
38. Melissa Ray - Rombicana [05:15]
39. Nude Performance Art, Dance Ero [03:12]
40. Swan - Message [05:44]
Качество: WEB-DLRip 1080p
Формат: MP4
Видео кодек: H.264
Аудио кодек: AAC
Видео: AVC,1280x720, 1920x1080 (16:9), 25.000 fps, 3 000 Kbps (0.058 bit/pixel)
Аудио#1: AAC LC, 48.0 KHz, 2 ch, 126 Kbps, VBR ,CBR(English)
скриншот   скриншот   скриншот   скриншот   скриншот  
скриншот   скриншот   скриншот   скриншот   скриншот  

Общее
Полное имя : C:\Раздача\Клипы\These beautiful delicious girls vol.3 (2015)\01. Quinn - Zavites.mp4
Формат : MPEG-4
Профиль формата : Base Media
Идентификатор кодека : isom
Размер файла : 95,0 Мбайт
Продолжительность : 4 м. 15 с.
Режим общего битрейта : Переменный
Общий поток : 3119 Кбит/сек
Дата кодирования : UTC 2013-02-20 17:09:23
Дата пометки : UTC 2013-02-20 17:09:23
Программа кодирования : Lavf53.32.100

Видео
Идентификатор : 1
Формат : AVC
Формат/Информация : Advanced Video Codec
Профиль формата : High@L5.0
Параметр CABAC формата : Да
Параметр ReFrames формата : 5 кадров
Идентификатор кодека : avc1
Идентификатор кодека/Информация : Advanced Video Coding
Продолжительность : 4 м. 15 с.
Битрейт : 3000 Кбит/сек
Ширина : 1920 пикселей
Высота : 1080 пикселей
Соотношение сторон : 16:9
Режим частоты кадров : Постоянный
Частота кадров : 25,000 кадров/сек
Цветовое пространство : YUV
Субдискретизация насыщенности : 4:2:0
Битовая глубина : 8 бит
Тип развёртки : Прогрессивная
Бит/(Пиксели*Кадры) : 0.058
Размер потока : 91,0 Мбайт (96%)
Библиотека кодирования : x264 core 129 r2245 bc13772
Настройки программы : cabac=1 / ref=5 / deblock=1:0:0 / analyse=0x3:0x113 / me=umh / subme=8 / psy=0 / mixed_ref=1 / me_range=16 / chroma_me=1 / trellis=1 / 8x8dct=1 / cqm=0 / deadzone=21,11 / fast_pskip=1 / chroma_qp_offset=0 / threads=36 / lookahead_threads=6 / sliced_threads=0 / nr=0 / decimate=1 / interlaced=0 / bluray_compat=0 / constrained_intra=0 / bframes=3 / b_pyramid=2 / b_adapt=2 / b_bias=0 / direct=3 / weightb=1 / open_gop=0 / weightp=2 / keyint=250 / keyint_min=25 / scenecut=40 / intra_refresh=0 / rc=2pass / mbtree=0 / bitrate=3000 / ratetol=1.0 / qcomp=0.60 / qpmin=10 / qpmax=51 / qpstep=4 / cplxblur=20.0 / qblur=0.5 / ip_ratio=1.40 / pb_ratio=1.30 / aq=1:1.00
Язык : English
Дата кодирования : UTC 2013-02-20 17:09:23
Дата пометки : UTC 2013-02-20 17:09:23

Аудио
Идентификатор : 2
Формат : AAC
Формат/Информация : Advanced Audio Codec
Профиль формата : LC
Идентификатор кодека : 40
Продолжительность : 4 м. 15 с.
Вид битрейта : Переменный
Битрейт : 126 Кбит/сек
Максимальный битрейт : 128 Кбит/сек
Каналы : 2 канала
Расположение каналов : Front: L R
Частота : 48,0 КГц
Метод сжатия : С потерями
Размер потока : 3,85 Мбайт (4%)
Язык : English
Дата кодирования : UTC 2013-02-20 17:09:23
Дата пометки : UTC 2013-02-20 17:09:23

Общее
Полное имя : C:\Раздача\Клипы\These beautiful delicious girls vol.3 (2015)\17. Nevena Nensy - Hot.mp4
Формат : MPEG-4
Профиль формата : Base Media / Version 2
Идентификатор кодека : mp42
Размер файла : 29,2 Мбайт
Продолжительность : 2 м. 9 с.
Режим общего битрейта : Переменный
Общий поток : 1892 Кбит/сек
Дата кодирования : UTC 2015-04-17 22:26:44
Дата пометки : UTC 2015-04-17 22:26:44

Видео
Идентификатор : 1
Формат : AVC
Формат/Информация : Advanced Video Codec
Профиль формата : High@L3.1
Параметр CABAC формата : Да
Параметр ReFrames формата : 4 кадра
Идентификатор кодека : avc1
Идентификатор кодека/Информация : Advanced Video Coding
Продолжительность : 2 м. 9 с.
Битрейт : 1728 Кбит/сек
Ширина : 1280 пикселей
Высота : 720 пикселей
Соотношение сторон : 16:9
Режим частоты кадров : Постоянный
Частота кадров : 23,976 кадра/сек
Цветовое пространство : YUV
Субдискретизация насыщенности : 4:2:0
Битовая глубина : 8 бит
Тип развёртки : Прогрессивная
Бит/(Пиксели*Кадры) : 0.078
Размер потока : 26,6 Мбайт (91%)
Библиотека кодирования : x264 core 146 r16 121396c
Настройки программы : cabac=1 / ref=3 / deblock=1:0:0 / analyse=0x3:0x113 / me=hex / subme=7 / psy=1 / psy_rd=1.00:0.00 / mixed_ref=1 / me_range=16 / chroma_me=1 / trellis=1 / 8x8dct=1 / cqm=0 / deadzone=21,11 / fast_pskip=1 / chroma_qp_offset=-2 / threads=72 / lookahead_threads=5 / sliced_threads=0 / nr=0 / decimate=1 / interlaced=0 / bluray_compat=0 / stitchable=1 / constrained_intra=0 / bframes=3 / b_pyramid=2 / b_adapt=1 / b_bias=0 / direct=1 / weightb=1 / open_gop=0 / weightp=2 / keyint=infinite / keyint_min=23 / scenecut=40 / intra_refresh=0 / rc_lookahead=40 / rc=crf / mbtree=1 / crf=20.0 / qcomp=0.60 / qpmin=5 / qpmax=69 / qpstep=4 / vbv_maxrate=2750 / vbv_bufsize=7500 / crf_max=0.0 / nal_hrd=none / filler=0 / ip_ratio=1.40 / aq=1:1.00
Дата кодирования : UTC 2015-04-17 22:26:44
Дата пометки : UTC 2015-04-17 22:26:44
Основные цвета : BT.709
Характеристики трансфера : BT.709
Коэффициенты матрицы : BT.709

Аудио
Идентификатор : 2
Формат : AAC
Формат/Информация : Advanced Audio Codec
Профиль формата : LC
Идентификатор кодека : 40
Продолжительность : 2 м. 9 с.
Вид битрейта : Переменный
Битрейт : 160 Кбит/сек
Каналы : 2 канала
Расположение каналов : Front: L R
Частота : 48,0 КГц
Метод сжатия : С потерями
Размер потока : 2,46 Мбайт (8%)
Дата кодирования : UTC 2015-04-17 22:26:44
Дата пометки : UTC 2015-04-17 22:26:44

pb.wtf



Скачать Эти вкусные красивые девушки через торрент https://pic.kartinco.top/images/11/zea4x.jpg Скачать, смотреть онлайн Эти вкусные красивые девушки бесплантно в хорошем качестве Описание: Красивые и просто сексуально эротические клипы с прекрасными девушками и чудесной музыкой.... vol.3 Quinn - Zavites [04:15] ... 9.5 10 23
Info! Золотая раздача, скачанное не засчитывается.
Торрент: Зарегистрирован [2015-04-20 08:52] · скачан: 389 раз
Статус: √ проверено
Размер: 4.41 GB
Как cкачать? Как скачать Эти вкусные красивые девушки через торрент | UTorrent

28-11-2019 20:33  

Отключить всю рекламу на сайте

20-04-2015 09:28 Эти вкусные красивые девушки Скачать торрент  

Последний скрин больше хомвидео, чем клипpb.wtf



    Дорогой пользователь! Огромная просьба, поблагодарите релизера, оцените раздачу и оставьте свои комментарий, если Вы скачали Эти вкусные красивые девушки через торрент бесплатно!
    Комментировать посты могут только пользователи прошедшие не сложную регистрацию
    Показать сообщения:    

    Эти вкусные красивые девушки через торрент
    Скачать бесплатно Эти вкусные красивые девушки
    Эти вкусные красивые девушки скачать торрент
    Эти вкусные красивые девушки смотреть онлайн
    Cкачать фильм Эти вкусные красивые девушки бесплатно
    Эти вкусные красивые девушки скачать торрент в хорошем качестве
    Эти вкусные красивые девушки смотреть онлайн бесплатно в хорошем качестве


    Вы не можете начинать темы
    Вы не можете отвечать на сообщения
    Вы не можете редактировать свои сообщения
    Вы не можете удалять свои сообщения
    Вы не можете голосовать в опросах
    Вы не можете прикреплять файлы к сообщениям
    Вы можете скачивать файлы