Достать ножи: Стеклянная луковица

MVO

Добыча

Дубляж

Уэнсдэй

1 сезон

Тор

Дубляж

13 клиническая

1 сезон

Жестокая ночь

MVO

Одни из нас

1 сезон

Deluxe

pack

Рекомендуем

30

Пиратка

ВАЖНО

ВАЖНО

Ghostwire

Пиратка

jed

RePack

nioh2

RePack

RDR2

RePack

NEED FOR SPEED™ PAYBACK

RePack

скачать торрент

Кинопоиск HD

Острые козырьки 6 сезон

6 сезон

FAR CRY 6

RePack

скачать торрент

Лицензия

скачать торрент

MVO

1

1 сезон

скачать торрент

1 сезон

скачать торрент

Лицензия

  

Семейка монстров / The Boxtrolls (Грэхэм Эннэйбл, Энтони Стакки) [2014 г., Мультфильм, Фэнтези, Комедия, Приключения, Семейный, BDRip 1080p, Дубляж, Лицензия] Анаглиф (Дюбуа)

Семейка монстров через торрент pb.wtf

Размер: 6.21 GB | Добавлен: 7 лет 9 мес. назад | Торрент скачан:40 раз
| Скачать | Поддержите нас   

26-03-2015 14:31 Семейка монстров Скачать торрент  

Семейка монстров / The Boxtrolls
Год выпуска: 2014
Страна: США
Жанр: Мультфильм, Фэнтези, Комедия, Приключения, Семейный
Продолжительность: 01:36:10
Перевод: Дубляж, Лицензия
Субтитры: Russian, Ukrainian, English

Режиссер: Грэхэм Эннэйбл, Энтони Стакки
Продюссер: Дэвид Блайман, Трэвис Найт
Сценарий: Ирена Бригналл, Адам Пава, Алан Сноу

Бюджет: $60 000 000
Премьера в мире: 31 августа 2014



В ролях: Бен Кингсли, Джаред Харрис, Ник Фрост, Ричард Айоади, Трэйси Морган, Ди Брэдли Бейкер, Стивен Блум, Ника Футтерман, Пэт Фрэли, Фред Татаскьор

Описание: Ему не повезло родиться в роскошном замке. Вместе с семейкой забавных монстров юноша поселился прямо под мостовой. Изысканные костюмы ему заменила обычная коробка. Зато каждую ночь он мог разгуливать по темным улицам в поисках новых приключений. Но однажды он встретил очаровательную девчушку из высшего общества — и мир вокруг изменился навсегда.

Доп. информация: Формат 3D: Анаглиф (Дюбуа)



Качество: BDRip 1080p
Формат: MKV
Видео кодек: H.264
Аудио кодек: AC3
Видео: x264, 1920 x 1080 (16:9), 7327 kbps, 23,976 fps, ( 0.147 bpp)
Аудио#1: Русский / AC3 / 48 KHz / 5.1 ch / 640 Kbps (Дубляж - BD 3D CEE)
Аудио#2: Украинский / AC3 / 48 KHz / 5.1 ch / 448 Kbps (Дубляж - BD 3D CEE)
Аудио#3: Английский / AC3 / 48 KHz / 5.1 ch / 640 Kbps (Original - BD 3D)



скриншот   скриншот   скриншот   скриншот   скриншот   скриншот  
x264 [info]: frame I:1186 Avg QP:14.36 size:279711
x264 [info]: frame P:37613 Avg QP:17.70 size: 76723
x264 [info]: frame B:99538 Avg QP:20.89 size: 22073
x264 [info]: consecutive B-frames: 4.0% 4.1% 11.4% 41.7% 38.8%


Общее
Уникальный идентификатор : 239222543812722409170876296626968681202 (0xB3F8960761CD39159678FD6B385F5AF2)
Полное имя : E:\The.Boxtrolls(2014)3D.mkv
Формат : Matroska
Версия формата : Version 4 / Version 2
Размер файла : 6,21 Гбайт
Продолжительность : 1 ч. 36 м.
Общий поток : 9239 Кбит/сек
Название фильма : Семейка монстров / The Boxtrolls (2014) 3D (Anaglyph-Dubois)
Дата кодирования : UTC 2015-03-22 14:52:56
Программа кодирования : mkvmerge v6.2.0 ('Promised Land') built on Apr 28 2013 12:22:01
Библиотека кодирования : libebml v1.3.0 + libmatroska v1.4.0

Видео
Идентификатор : 1
Формат : AVC
Формат/Информация : Advanced Video Codec
Профиль формата : [email protected]
MultiView_Count : 2
MultiView_Layout : Anaglyph (cyan/red)
Параметр CABAC формата : Да
Параметр ReFrames формата : 4 кадра
Идентификатор кодека : V_MPEG4/ISO/AVC
Продолжительность : 1 ч. 36 м.
Битрейт : 7327 Кбит/сек
Ширина : 1920 пикселей
Высота : 1080 пикселей
Соотношение сторон : 16:9
Режим частоты кадров : Постоянный
Частота кадров : 23,976 кадра/сек
Цветовое пространство : YUV
Субдискретизация насыщенности : 4:2:0
Битовая глубина : 8 бит
Тип развёртки : Прогрессивная
Бит/(Пиксели*Кадры) : 0.147
Размер потока : 4,92 Гбайт (79%)
Заголовок : The Boxtrolls (2014) 3D (Anaglyph-Dubois).mkv
Библиотека кодирования : x264 core 130 r2273 b3065e6
Настройки программы : cabac=1 / ref=4 / deblock=1:-3:-3 / analyse=0x3:0x113 / me=umh / subme=9 / psy=1 / psy_rd=1.00:0.00 / mixed_ref=1 / me_range=24 / chroma_me=1 / trellis=1 / 8x8dct=1 / cqm=0 / deadzone=21,11 / fast_pskip=1 / chroma_qp_offset=-2 / threads=3 / lookahead_threads=1 / sliced_threads=0 / nr=0 / decimate=1 / interlaced=0 / bluray_compat=0 / constrained_intra=0 / bframes=4 / b_pyramid=2 / b_adapt=2 / b_bias=0 / direct=1 / weightb=1 / open_gop=0 / weightp=2 / keyint=250 / keyint_min=23 / scenecut=40 / intra_refresh=0 / rc_lookahead=50 / rc=crf / mbtree=1 / crf=17.5 / qcomp=0.60 / qpmin=0 / qpmax=69 / qpstep=4 / ip_ratio=1.40 / aq=1:0.60
Язык : English
Default : Да
Forced : Нет

Аудио #1
Идентификатор : 2
Формат : AC-3
Формат/Информация : Audio Coding 3
Расширение режима : CM (complete main)
Параметр Endianness формата : Big
Идентификатор кодека : A_AC3
Продолжительность : 1 ч. 36 м.
Вид битрейта : Постоянный
Битрейт : 640 Кбит/сек
Каналы : 6 каналов
Расположение каналов : Front: L C R, Side: L R, LFE
Частота : 48,0 КГц
Битовая глубина : 16 бит
Метод сжатия : С потерями
Размер потока : 440 Мбайт (7%)
Заголовок : Дубляж - BD 3D CEE
Язык : Russian
Default : Да
Forced : Нет

Аудио #2
Идентификатор : 3
Формат : AC-3
Формат/Информация : Audio Coding 3
Расширение режима : CM (complete main)
Параметр Endianness формата : Big
Идентификатор кодека : A_AC3
Продолжительность : 1 ч. 36 м.
Вид битрейта : Постоянный
Битрейт : 448 Кбит/сек
Каналы : 6 каналов
Расположение каналов : Front: L C R, Side: L R, LFE
Частота : 48,0 КГц
Битовая глубина : 16 бит
Метод сжатия : С потерями
Размер потока : 308 Мбайт (5%)
Заголовок : Дубляж - BD 3D CEE
Язык : Ukrainian
Default : Нет
Forced : Нет

Аудио #3
Идентификатор : 4
Формат : AC-3
Формат/Информация : Audio Coding 3
Расширение режима : CM (complete main)
Параметр Endianness формата : Big
Идентификатор кодека : A_AC3
Продолжительность : 1 ч. 36 м.
Вид битрейта : Постоянный
Битрейт : 640 Кбит/сек
Каналы : 6 каналов
Расположение каналов : Front: L C R, Side: L R, LFE
Частота : 48,0 КГц
Битовая глубина : 16 бит
Метод сжатия : С потерями
Размер потока : 440 Мбайт (7%)
Заголовок : Original - BD 3D
Язык : English
Default : Нет
Forced : Нет

Текст #1
Идентификатор : 5
Формат : UTF-8
Идентификатор кодека : S_TEXT/UTF8
Идентификатор кодека/Информация : UTF-8 Plain Text
Заголовок : Форсированные
Язык : Russian
Default : Да
Forced : Нет

Текст #2
Идентификатор : 6
Формат : UTF-8
Идентификатор кодека : S_TEXT/UTF8
Идентификатор кодека/Информация : UTF-8 Plain Text
Заголовок : Полные
Язык : Russian
Default : Нет
Forced : Нет

Текст #3
Идентификатор : 7
Формат : UTF-8
Идентификатор кодека : S_TEXT/UTF8
Идентификатор кодека/Информация : UTF-8 Plain Text
Заголовок : Форсированные
Язык : Ukrainian
Default : Нет
Forced : Нет

Текст #4
Идентификатор : 8
Формат : UTF-8
Идентификатор кодека : S_TEXT/UTF8
Идентификатор кодека/Информация : UTF-8 Plain Text
Заголовок : Полные
Язык : Ukrainian
Default : Нет
Forced : Нет

Текст #5
Идентификатор : 9
Формат : UTF-8
Идентификатор кодека : S_TEXT/UTF8
Идентификатор кодека/Информация : UTF-8 Plain Text
Заголовок : Full
Язык : English
Default : Нет
Forced : Нет

Текст #6
Идентификатор : 10
Формат : UTF-8
Идентификатор кодека : S_TEXT/UTF8
Идентификатор кодека/Информация : UTF-8 Plain Text
Заголовок : SDH
Язык : English
Default : Нет
Forced : Нет

Текст #7
Идентификатор : 11
Формат : UTF-8
Идентификатор кодека : S_TEXT/UTF8
Идентификатор кодека/Информация : UTF-8 Plain Text
Заголовок : SDH-Colored
Язык : English
Default : Нет
Forced : Нет

Меню
00:00:00.000 : :1
00:05:52.143 : :2
00:11:53.296 : :3
00:15:21.337 : :4
00:20:22.805 : :5
00:27:08.502 : :6
00:32:25.944 : :7
00:36:26.518 : :8
00:41:45.920 : :9
00:45:45.284 : :10
00:51:57.281 : :11
00:56:00.107 : :12
01:02:03.887 : :13
01:07:26.209 : :14
01:11:27.867 : :15
01:16:27.875 : :16
01:22:05.671 : :17
01:25:30.375 : :18
01:27:33.248 : :19
01:30:00.687 : :20




Скачать Семейка монстров через торрент https://pic1.kartinco.top/images/10/3jxpx.jpg Скачать, смотреть онлайн Семейка монстров бесплантно в хорошем качестве Описание: Ему не повезло родиться в роскошном замке. Вместе с семейкой забавных монстров юноша поселился прямо под мостовой. Изысканные ... 6.7 10 3
Торрент: Зарегистрирован [2015-04-20 16:39] · скачан: 40 раз
Статус: √ проверено
Размер: 6.21 GB
Как cкачать? Как скачать Семейка монстров через торрент | UTorrent

% Раздел Тема Автор DL S | L
Иностранные мультфильмы [ 2.18 GB ] Семейка монстров / The Boxtrolls | Лицензия | BDRip-AVC potroks Скачать
1 | 0
Иностранные мультфильмы [ 1.45 GB ] Семейка монстров / The Boxtrolls | Лицензия | BDRip от HQCLUB / Лицензия Ворон Скачать
1 | 0
Иностранные мультфильмы [ 1.46 GB ] Семейка монстров / The Boxtrolls | Лицензия" | HDRip, Дубляж "Лицензия" coc900 Скачать
1 | 0
Зарубежные Мультфильмы (BDRip 1080p, 720p, Blu-ray, BD-Remux) [ 5.71 GB ] Семейка монстров / The Boxtrolls | DUB | 720p, Assasinca Скачать
1 | 0
Иностранные мультфильмы [ 1.37 GB ] Семейка монстров / The Boxtrolls | Лицензия iTunes | DLRip diletant Скачать
1 | 0
3D Мультфильмы [ 8.7 GB ] Семейка монстров / The Boxtrolls | iTunes Горизонтальная анаморфная стереопара | 1080p, Дубляж Ворон Скачать
1 | 0
Зарубежные Мультфильмы (BDRip 1080p, 720p, Blu-ray, BD-Remux) [ 4.71 GB ] Семейка монстров / The Boxtrolls | iTunes | 1080p, Дубляж Ворон Скачать
1 | 0

28-11-2019 20:33  


Отключить вcю реклaмy на сайте, в т.ч. и в плеере онлайн просмотра!

    Дорогой пользователь! Огромная просьба, поблагодарите релизера, оцените раздачу и оставьте свои комментарий, если Вы скачали Семейка монстров через торрент бесплатно!!
    Комментировать посты могут только пользователи прошедшие не сложную регистрацию
    Показать сообщения:    


    Семейка монстров через торрент
    Скачать бесплатно Семейка монстров
    Семейка монстров скачать торрент
    Семейка монстров смотреть онлайн
    Cкачать фильм Семейка монстров бесплатно
    Семейка монстров скачать торрент в хорошем качестве
    Семейка монстров смотреть онлайн бесплатно в хорошем качестве
    Вы не можете начинать темы
    Вы не можете отвечать на сообщения
    Вы не можете редактировать свои сообщения
    Вы не можете удалять свои сообщения
    Вы не можете голосовать в опросах
    Вы не можете прикреплять файлы к сообщениям
    Вы можете скачивать файлы
    Семейка монстров / The Boxtrolls [2014 г., Мультфильм, Фэнтези, Комедия, Приключения, Семейный, BDRip 1080p, Дубляж, Лицензия] Анаглиф смотреть онлайн, скачать торрент picoco.icu