Ссылка на приватное зеркало нашего сайта всего за 1$. Внимание количество ограничено!!!

2 сезон

iTunes

1 сезон

1

iTunes

iTunes

iTunes

1 сезон

RePack

30

ИГРА 18+

pack

ВАЖНО

!!Акция!!

Alien_RageХит недели

RePack

MK11
pack

Забери бонус

RePack

jed

!!Акция!!

Alien_Rage

RePack

fifa19

RePack

Assassins Creed: Odyssey

RePack

NEED FOR SPEED™ PAYBACK

4 сезон

9 сезон

Бесстыжие 9 сезон

Все сериалы

все сериалы на PB.wtf

RePack

FAR CRY 5
  

Дудочка крысолова / Серии: 1-4 из 4 (Андрес Пуустусмаа) [2015 г., Детектив, WEB-DLRip] pb.wtf

Дудочка крысолова через торрент pb.wtf

Размер: 2.34 GB | Добавлен: 5 лет 6 мес. назад | Торрент скачан:445 раз
Скачать  

20-04-2015 21:12 Дудочка крысолова Скачать торрент  

Дудочка крысолова Год выпуска: 2015
Страна: Россия "Star Media"
Жанр: Детектив
Продолжительность: 4 x ~ 00:45:00

Режиссер: Андрес Пуустусмаа
Сценарий: Екатерина Костикова

Премьера в мире: 18 апреля 2015 В ролях: Алексей Секирин, Сергей Колешня, Сергей Губанов, Александр Обласов, Татьяна Ермилова

Описание: По мотивам одноименного романа Елены Михалковой. В элитном ночном клубе совершено убийство модели Микаэлы Костиной. В клуб наведывается не только полиция, но и сыщики Макар Илюшин и Сергей Бабкин, которые вышли на след разыскиваемой ими Аллы Рокуновой. За Аллу беспокоится ее тетка, которая утверждает, что попадать в пикантные истории – своего рода хобби для ее племянницы. Увидев сыщиков, Алла сбегает. Очевидно, что она может быть причастна к смерти Микаэлы. А быть может и не только, потому что Микаэла - вторая убитая модель, работавшая в ночном клубе. И у Микаэлы и у первой жертвы убийцы в крови был обнаружен токсический препарат миорелаксант, который применяется при травле крыс, а в значительных дозах может быть смертельно опасным для человека…

Качество: WEB-DLRip
Формат: AVI
Видео кодек: XviD
Аудио кодек: AC3
Видео: Xvid 720x400, 25fps, 1684kbps
Аудио: Dolby AC3, 48000Hz, stereo, 192kbpsСкриншоты:скриншот  скриншот  скриншот  скриншот  скриншот  скриншот  




General
Complete name : E:\4006\Dudochka.krysolova.2015.WEB-DLRip.Files-x\01.Dudochka.krysolova.2015.WEB-DLRip.Files-x.avi
Format : AVI
Format/Info : Audio Video Interleave
File size : 599 MiB
Duration : 44mn 21s
Overall bit rate : 1 886 Kbps
Writing application : VirtualDubMod 1.5.10.3 | (build 2550/release)
Writing library : VirtualDubMod build 2550/release

Video
ID : 0
Format : MPEG-4 Visual
Format profile : Advanced Simple@L5
Format settings, BVOP : 1
Format settings, QPel : No
Format settings, GMC : No warppoints
Format settings, Matrix : Custom
Codec ID : XVID
Codec ID/Hint : XviD
Duration : 44mn 21s
Bit rate : 1 685 Kbps
Width : 720 pixels
Height : 400 pixels
Display aspect ratio : 16:9
Frame rate : 25.000 fps
Color space : YUV
Chroma subsampling : 4:2:0
Bit depth : 8 bits
Scan type : Progressive
Compression mode : Lossy
Bits/(Pixel*Frame) : 0.234
Stream size : 535 MiB (89%)
Writing library : XviD 73

Audio
ID : 1
Format : AC-3
Format/Info : Audio Coding 3
Mode extension : CM (complete main)
Format settings, Endianness : Big
Codec ID : 2000
Duration : 44mn 21s
Bit rate mode : Constant
Bit rate : 192 Kbps
Channel(s) : 2 channels
Channel positions : Front: L R
Sampling rate : 48.0 KHz
Bit depth : 16 bits
Compression mode : Lossy
Stream size : 60.9 MiB (10%)
Alignment : Split accross interleaves
Interleave, duration : 40 ms (1.00 video frame)
Interleave, preload duration : 500 ms

pb.wtf



Скачать Дудочка крысолова через торрент http://pic.kartinco.top/images/11/ys8pw.jpg Скачать фильм Дудочка крысолова через торрент бесплантно в хорошем качестве Описание: По мотивам одноименного романа Елены Михалковой. В элитном ночном клубе совершено убийство модели Микаэлы Костиной. В клуб ... 9.2 10 16
Торрент: Зарегистрирован [2015-04-20 21:12] · скачан: 445 раз
Статус: √ проверено
Размер: 2.34 GB
Как cкачать? Как скачать Дудочка крысолова через торрент | qTorrent

28-11-2019 20:33  

Отключить всю рекламу на сайте

    Дорогой пользователь! Огромная просьба, поблагодарите релизера, оцените раздачу и оставьте свои комментарий, если Вы скачали Дудочка крысолова через торрент бесплатно! Внесите свою лепту в развитие PiratBit!
    Комментировать посты могут только пользователи прошедшие не сложную регистрацию
    Показать сообщения:    

    Дудочка крысолова через торрент
    Скачать бесплатно Дудочка крысолова
    Дудочка крысолова скачать торрент
    Дудочка крысолова смотреть онлайн
    Cкачать фильм Дудочка крысолова бесплатно
    Дудочка крысолова скачать торрент в хорошем качестве
    Дудочка крысолова смотреть онлайн бесплатно в хорошем качестве


    Вы не можете начинать темы
    Вы не можете отвечать на сообщения
    Вы не можете редактировать свои сообщения
    Вы не можете удалять свои сообщения
    Вы не можете голосовать в опросах
    Вы не можете прикреплять файлы к сообщениям
    Вы можете скачивать файлы