Ссылка на приватное зеркало нашего сайта всего за 1$. Внимание количество ограничено!!!

2 сезон

iTunes

1 сезон

1

iTunes

iTunes

iTunes

1 сезон

RePack

30

ИГРА 18+

pack

ВАЖНО

!!Акция!!

Alien_RageХит недели

RePack

MK11
pack

Забери бонус

RePack

jed

!!Акция!!

Alien_Rage

RePack

fifa19

RePack

Assassins Creed: Odyssey

RePack

NEED FOR SPEED™ PAYBACK

4 сезон

9 сезон

Бесстыжие 9 сезон

Все сериалы

все сериалы на PB.wtf

RePack

FAR CRY 5
  

Шерлок Холмс: Игра теней / Sherlock Holmes: A Game of Shadows (Гай Ричи / Guy Ritchie) [2011, боевик, триллер, криминал, BDRip 720p] DUB, 2xAVO + Original + Sub (4xRus, 2xEng) pb.wtf

Шерлок Холмс: Игра теней через торрент pb.wtf

Раздают: 1 [ 0 KB/s ]
Размер: 7.75 GB | Добавлен: 5 лет 5 мес. назад | Торрент скачан:619 раз
Скачать  

21-04-2015 10:15 Шерлок Холмс: Игра теней Скачать торрент  

Шерлок Холмс: Игра теней / Sherlock Holmes: A Game of Shadows


Год выпуска: 2011
Страна: США
Жанр: боевик, триллер, криминал, детектив, приключения
Продолжительность: 02:08:44
Перевод: Дублированный, Авторский (одноголосый)
Субтитры: русские (forced), русские (full), русские (voronine), русские (SDH-voronine), английские (full), английские (SDH)
Режиссер: Гай Ричи
В ролях: Роберт Дауни мл. , Джуд Лоу , Нуми Рапас , Джаред Харрис , Пол Андерсон , Стивен Фрай , Рэйчел МакАдамс , Келли Райлли , Джеральдин Джеймс , Эдди Марсан , Уильям Хьюстон , Вольф Калер
Описание:
1891 год. В Вене и Страсбурге проходит серия терактов, организованных анархистами или националистами, а по всей Европе происходят таинственные убийства. Шерлок Холмс считает, что за всем этим стоит профессор Джеймс Мориарти - математический гений, автор знаменитых лекций и трудов.

PG-13 - Детям до 13 лет просмотр не желателен
Качество: BDRip 720p (исходник Blu-ray)
Контейнер (Расширение): MKV
Видео кодек: AVC
Аудио кодек: AC3
Видео: 1280x534 (2.40:1), 6250 Кбит/сек, 23,976 кадр/сек, 0,381 Бит/[Пиксели*Кадры]
Аудио №1: русский / AC3 / 5.1 / 48 kHz / 448 kbps / 16 bit |Дублированный|
Аудио №2: русский / AC3 / 5.1 / 48 kHz / 640 kbps / 16 bit |Авторский, Ю.Сербин|
Аудио №3: русский / AC3 / 5.1 / 48 kHz / 640 kbps / 16 bit |Авторский, А.Гаврилов|
Аудио №4: английский / AC3 / 5.1 / 48 kHz / 640 kbps / 16 bit
Навигация по главам(Чаптеры): естьАвтор рипа: Сообщество:
  • Брэд Питт, Гари Олдман, Дэниел Дэй-Льюис, Шон Пенн и Хавьер Бардем рассматривались на роль профессора Мориарти.
  • Макияж Холмса в сцене разборки в поезде - это аллюзия на внешний вид Джокера в исполнении Хита Леджера («Темный рыцарь»).
  • В финальной части картины, Шерлок Холмс ставит профессору шах слоном, на что тот отвечает рокировкой. Устная партия, тем не менее, продолжается. По правилам, рокировка из-под шаха запрещена.
  • До Первой мировой войны, в английской армии ручные гранаты были только с контактным взрывателем. Они взрывались, если после удаления предохранительной чеки их роняли или ударяли о землю или твёрдую поверхность.
  • Код:

    Format                                   : Matroska
    Format version                           : Version 2
    File size                                : 7.75 GiB
    Duration                                 : 2h 8mn
    Overall bit rate                         : 8 617 Kbps
    Movie name                               : Sherlok Holms.Igra tenej.(2011).BDRip.720p.[denis100]
    Encoded date                             : UTC 2015-04-21 09:42:38
    Writing application                      : mkvmerge v5.8.0 ('No Sleep / Pillow') built on Sep  2 2012 15:37:04
    Writing library                          : libebml v1.2.3 + libmatroska v1.3.0

    Video
    ID                                       : 1
    Format                                   : AVC
    Format/Info                              : Advanced Video Codec
    Format profile                           : High@L4.1
    Format settings, CABAC                   : Yes
    Format settings, ReFrames                : 11 frames
    Codec ID                                 : V_MPEG4/ISO/AVC
    Duration                                 : 2h 8mn
    Bit rate                                 : 6 250 Kbps
    Width                                    : 1 280 pixels
    Height                                   : 534 pixels
    Display aspect ratio                     : 2.40:1
    Frame rate                               : 23.976 fps
    Color space                              : YUV
    Chroma subsampling                       : 4:2:0
    Bit depth                                : 8 bits
    Scan type                                : Progressive
    Bits/(Pixel*Frame)                       : 0.381
    Stream size                              : 5.47 GiB (71%)
    Title                                    : Sherlok Holms.Igra tenej.(2011).BDRip.720p.[denis100]
    Writing library                          : x264 core 146 r2538 121396c
    Encoding settings                        : cabac=1 / ref=11 / deblock=1:-3:-3 / analyse=0x3:0x133 / me=umh / subme=11 / psy=1 / psy_rd=1.00:0.10 / mixed_ref=1 / me_range=48 / chroma_me=1 / trellis=2 / 8x8dct=1 / cqm=0 / deadzone=21,11 / fast_pskip=0 / chroma_qp_offset=-3 / threads=6 / lookahead_threads=1 / sliced_threads=0 / nr=0 / decimate=1 / interlaced=0 / bluray_compat=0 / constrained_intra=0 / bframes=9 / b_pyramid=2 / b_adapt=2 / b_bias=0 / direct=3 / weightb=1 / open_gop=0 / weightp=2 / keyint=240 / keyint_min=23 / scenecut=40 / intra_refresh=0 / rc=2pass / mbtree=0 / bitrate=6250 / ratetol=1.0 / qcomp=0.60 / qpmin=0 / qpmax=69 / qpstep=4 / cplxblur=20.0 / qblur=0.5 / ip_ratio=1.40 / pb_ratio=1.30 / aq=1:0.80
    Language                                 : English
    Default                                  : Yes
    Forced                                   : No

    Audio #1
    ID                                       : 2
    Format                                   : AC-3
    Format/Info                              : Audio Coding 3
    Mode extension                           : CM (complete main)
    Codec ID                                 : A_AC3
    Duration                                 : 2h 8mn
    Bit rate mode                            : Constant
    Bit rate                                 : 448 Kbps
    Channel(s)                               : 6 channels
    Channel positions                        : Front: L C R, Side: L R, LFE
    Sampling rate                            : 48.0 KHz
    Bit depth                                : 16 bits
    Compression mode                         : Lossy
    Stream size                              : 413 MiB (5%)
    Title                                    : Дублированный
    Language                                 : Russian
    Default                                  : Yes
    Forced                                   : No

    Audio #2
    ID                                       : 3
    Format                                   : AC-3
    Format/Info                              : Audio Coding 3
    Mode extension                           : CM (complete main)
    Codec ID                                 : A_AC3
    Duration                                 : 2h 8mn
    Bit rate mode                            : Constant
    Bit rate                                 : 640 Kbps
    Channel(s)                               : 6 channels
    Channel positions                        : Front: L C R, Side: L R, LFE
    Sampling rate                            : 48.0 KHz
    Bit depth                                : 16 bits
    Compression mode                         : Lossy
    Stream size                              : 589 MiB (7%)
    Title                                    : Авторский, Ю.Сербин
    Language                                 : Russian
    Default                                  : No
    Forced                                   : No

    Audio #3
    ID                                       : 4
    Format                                   : AC-3
    Format/Info                              : Audio Coding 3
    Mode extension                           : CM (complete main)
    Codec ID                                 : A_AC3
    Duration                                 : 2h 8mn
    Bit rate mode                            : Constant
    Bit rate                                 : 640 Kbps
    Channel(s)                               : 6 channels
    Channel positions                        : Front: L C R, Side: L R, LFE
    Sampling rate                            : 48.0 KHz
    Bit depth                                : 16 bits
    Compression mode                         : Lossy
    Stream size                              : 589 MiB (7%)
    Title                                    : Авторский, А.Гаврилов
    Language                                 : Russian
    Default                                  : No
    Forced                                   : No

    Audio #4
    ID                                       : 5
    Format                                   : AC-3
    Format/Info                              : Audio Coding 3
    Mode extension                           : CM (complete main)
    Codec ID                                 : A_AC3
    Duration                                 : 2h 8mn
    Bit rate mode                            : Constant
    Bit rate                                 : 640 Kbps
    Channel(s)                               : 6 channels
    Channel positions                        : Front: L C R, Side: L R, LFE
    Sampling rate                            : 48.0 KHz
    Bit depth                                : 16 bits
    Compression mode                         : Lossy
    Stream size                              : 589 MiB (7%)
    Language                                 : English
    Default                                  : No
    Forced                                   : No

    Text #1
    ID                                       : 6
    Format                                   : UTF-8
    Codec ID                                 : S_TEXT/UTF8
    Codec ID/Info                            : UTF-8 Plain Text
    Title                                    : forced
    Language                                 : Russian
    Default                                  : Yes
    Forced                                   : No

    Text #2
    ID                                       : 7
    Format                                   : UTF-8
    Codec ID                                 : S_TEXT/UTF8
    Codec ID/Info                            : UTF-8 Plain Text
    Title                                    : full
    Language                                 : Russian
    Default                                  : No
    Forced                                   : No

    Text #3
    ID                                       : 8
    Format                                   : UTF-8
    Codec ID                                 : S_TEXT/UTF8
    Codec ID/Info                            : UTF-8 Plain Text
    Title                                    : voronine
    Language                                 : Russian
    Default                                  : No
    Forced                                   : No

    Text #4
    ID                                       : 9
    Format                                   : UTF-8
    Codec ID                                 : S_TEXT/UTF8
    Codec ID/Info                            : UTF-8 Plain Text
    Title                                    : SDH-voronine
    Language                                 : Russian
    Default                                  : No
    Forced                                   : No

    Text #5
    ID                                       : 10
    Format                                   : UTF-8
    Codec ID                                 : S_TEXT/UTF8
    Codec ID/Info                            : UTF-8 Plain Text
    Title                                    : full
    Language                                 : English
    Default                                  : No
    Forced                                   : No

    Text #6
    ID                                       : 11
    Format                                   : UTF-8
    Codec ID                                 : S_TEXT/UTF8
    Codec ID/Info                            : UTF-8 Plain Text
    Title                                    : SDH
    Language                                 : English
    Default                                  : No
    Forced                                   : No

    Menu
    00:00:00.000                             : en:00:00:00.000
    00:05:35.418                             : en:00:05:35.418
    00:12:10.521                             : en:00:12:10.521
    00:23:27.364                             : en:00:23:27.364
    00:27:56.425                             : en:00:27:56.425
    00:32:11.221                             : en:00:32:11.221
    00:38:03.698                             : en:00:38:03.698
    00:44:20.283                             : en:00:44:20.283
    00:48:40.876                             : en:00:48:40.876
    00:56:19.668                             : en:00:56:19.668
    01:01:16.673                             : en:01:01:16.673
    01:07:35.093                             : en:01:07:35.093
    01:15:23.436                             : en:01:15:23.436
    01:19:58.836                             : en:01:19:58.836
    01:26:51.832                             : en:01:26:51.832
    01:31:27.107                             : en:01:31:27.107
    01:39:32.717                             : en:01:39:32.717
    01:45:32.701                             : en:01:45:32.701
    01:53:45.652                             : en:01:53:45.652
    02:02:56.160                             : en:02:02:56.160

    x264 [info]: frame I:1804 Avg QP:13.08 size:133825
    x264 [info]: frame P:45091 Avg QP:15.45 size: 55954
    x264 [info]: frame B:138314 Avg QP:17.62 size: 23614
    pb.wtf



    Скачать Шерлок Холмс: Игра теней через торрент http://i48.fastpic.ru/big/2015/0421/81/98c55bd36cc05b5ac1b8b093dbfe1081.png Скачать фильм Шерлок Холмс: Игра теней через торрент бесплантно в хорошем качестве Описание:1891 год. В Вене и Страсбурге проходит серия терактов, организованных анархистами или националистами, а по всей Европе происходят ... 10 10 17
    Info! Золотая раздача, скачанное не засчитывается.
    Торрент: Зарегистрирован [2015-04-21 10:15] · скачан: 619 раз
    Статус: √ проверено
    Размер: 7.75 GB
    Как cкачать? Как скачать Шерлок Холмс: Игра теней через торрент | qTorrent

    % Раздел Тема Автор DL S | L
    Ultra HD (UHD: 2K, 4K, 8K) — видео сверхвысокой чёткости [ 63.66 GB ] Шерлок Холмс: Игра теней / Sherlock Holmes: A Game of Shadows [2011 UHD BDRemux 2160p] DUB [] +4xAVO bober100 Скачать
    3 | 1
    T Фильмы с авторской озвучкой [ 2.19 GB ] Шерлок Холмс: Игра теней / Sherlock Holmes: A Game of Shadows [2011 WEB-DL 1080p] [AVO] killermax2013 Скачать
    4 | 0
    # Фильмы (Blu-ray, BD-Remux, HDDVD) [ 21.47 GB ] Шерлок Холмс: Игра теней / Sherlock Holmes: A Game of Shadows [2011 BDRemux 1080p] DUB sheker187 Скачать
    1 | 0
    Ultra HD (UHD: 2K, 4K, 8K) — видео сверхвысокой чёткости [ 41.63 GB ] Шерлок Холмс: Игра теней / Sherlock Holmes: A Game of Shadows [2011 UHD WEBRip 2160p] DUB + 2xAVO sheker187 Скачать
    1 | 0
    Фильмы (DVD фильмы) [ 6.35 GB ] Шерлок Холмс: Игра теней / Sherlock Holmes: A Game of Shadows [2011 DVD9] R5 voovaz Скачать
    1 | 0
    Фильмы с авторской озвучкой [ 2.13 GB ] Шерлок Холмс: Игра теней / Sherlock Holmes: A Game of Shadows [2011 BDRip] [AVO] + [AVO] killermax2013 Скачать
    1 | 0
    Фильмы 2011 [ 2.18 GB ] Шерлок Холмс: Игра теней / Sherlock Holmes: A Game of Shadows [2011 HDRip DUB ] WISE Скачать
    1 | 0

    28-11-2019 20:33  

    Отключить всю рекламу на сайте

      Дорогой пользователь! Огромная просьба, поблагодарите релизера, оцените раздачу и оставьте свои комментарий, если Вы скачали Шерлок Холмс: Игра теней через торрент бесплатно! Внесите свою лепту в развитие PiratBit!
      Комментировать посты могут только пользователи прошедшие не сложную регистрацию
      Показать сообщения:    

      Шерлок Холмс: Игра теней через торрент
      Скачать бесплатно Шерлок Холмс: Игра теней
      Шерлок Холмс: Игра теней скачать торрент
      Шерлок Холмс: Игра теней смотреть онлайн
      Cкачать фильм Шерлок Холмс: Игра теней бесплатно
      Шерлок Холмс: Игра теней скачать торрент в хорошем качестве
      Шерлок Холмс: Игра теней смотреть онлайн бесплатно в хорошем качестве


      Вы не можете начинать темы
      Вы не можете отвечать на сообщения
      Вы не можете редактировать свои сообщения
      Вы не можете удалять свои сообщения
      Вы не можете голосовать в опросах
      Вы не можете прикреплять файлы к сообщениям
      Вы можете скачивать файлы