Доктор Стрэндж

Лицензия

Добыча

Дубляж

Уэнсдэй

1 сезон

Тор

Дубляж

В эфире

Дубляж

Там, где раки поют

MVO

Властелин колец

1 сезон

Deluxe

pack

Рекомендуем

30

Пиратка

ВАЖНО

ВАЖНО

Ghostwire

Пиратка

jed

RePack

nioh2

RePack

RDR2

RePack

NEED FOR SPEED™ PAYBACK

RePack

скачать торрент

Кинопоиск HD

Острые козырьки 6 сезон

6 сезон

FAR CRY 6

RePack

скачать торрент

Лицензия

скачать торрент

MVO

1

1 сезон

скачать торрент

1 сезон

скачать торрент

Лицензия

  

Париж: Город мёртвых / As Above, So Below (Джон Эрик Даудл ) [2014, ужасы, триллер, BDRip 1080p, Дублированный+Авторский (одноголосый)]

Париж: Город мёртвых через торрент pb.wtf

Размер: 7.76 GB | Добавлен: 7 лет 7 мес. назад | Торрент скачан:142 раза
Смотреть онлайн | Скачать   

16-12-2014 10:17 Париж: Город мёртвых Скачать торрент  

Париж: Город мёртвых / As Above, So Below
«Увидеть Париж и умереть»


Год выпуска: 2014
Страна: США
Жанр: ужасы, триллер
Продолжительность: 01:33:08
Перевод: Дублированный, Авторский (одноголосый)
Субтитры: русские (Russian), русские (Forced), английские (English), английские (SDH)
Режиссер: Джон Эрик Даудл
В ролях: Пердита Викс , Бен Фельдман , Эдвин Ходж , Франсуа Сивиль , Мэрион Ламберт , Али Мархьяр , Косме Кастро , Хамид Джавадан , Тео Чолби , Эми Леви , Рогер Ван Хол , Оливия Чики Трнка
Описание::
Величие Эйфелевой башни и роскошь бутиков, ароматы изысканной кухни и краски Елисейских полей - это лишь саван, под которым скрывается настоящий Париж. Здесь, в бесконечных катакомбах живут истинные владыки этого мира.
Заблудшая душа, добро пожаловать в Город мертвых...

Качество: BDRip 1080p (исходник Blu-ray)
Контейнер (Расширение): MKV
Видео кодек: AVC
Аудио кодек: AC3
Видео: 1920x1040 (16:9), 10020 Кбит/сек, 23,976 кадр/сек, 0,209 Бит/[Пиксели*Кадры]
Аудио №1: русский / AC3 / 5.1 / 48 kHz / 640 kbps / 16 bit |Дублированный|
Аудио №2: русский / AC3 / 5.1 / 48 kHz / 640 kbps / 16 bit |Авторский одноголосый (Д.Есарев)|
Аудио №3: английский / AC3 / 5.1 / 48 kHz / 640 kbps / 16 bit
Навигация по главам(Чаптеры): естьАвтор рипа: Сообщество:

Код:

Format                                   : Matroska
Format version                           : Version 2
File size                                : 7.76 GiB
Duration                                 : 1h 33mn
Overall bit rate                         : 11.9 Mbps
Movie name                               : Parizh: Gorod mjortvyh.(2014).BDRip.1080p.[denis100]
Encoded date                             : UTC 2014-12-16 09:21:02
Writing application                      : mkvmerge v5.8.0 ('No Sleep / Pillow') built on Sep  2 2012 15:37:04
Writing library                          : libebml v1.2.3 + libmatroska v1.3.0

Video
ID                                       : 1
Format                                   : AVC
Format/Info                              : Advanced Video Codec
Format profile                           : [email protected]
Format settings, CABAC                   : Yes
Format settings, ReFrames                : 4 frames
Codec ID                                 : V_MPEG4/ISO/AVC
Duration                                 : 1h 33mn
Bit rate                                 : 10.0 Mbps
Width                                    : 1 920 pixels
Height                                   : 1 040 pixels
Display aspect ratio                     : 16:9
Frame rate                               : 23.976 fps
Color space                              : YUV
Chroma subsampling                       : 4:2:0
Bit depth                                : 8 bits
Scan type                                : Progressive
Bits/(Pixel*Frame)                       : 0.209
Stream size                              : 6.36 GiB (82%)
Title                                    : Parizh: Gorod mjortvyh.(2014).BDRip.1080p.[denis100]
Writing library                          : x264 core 142 r2491 24e4fed
Encoding settings                        : cabac=1 / ref=4 / deblock=1:-3:-3 / analyse=0x3:0x133 / me=umh / subme=11 / psy=1 / psy_rd=1.00:0.10 / mixed_ref=1 / me_range=32 / chroma_me=1 / trellis=2 / 8x8dct=1 / cqm=0 / deadzone=21,11 / fast_pskip=0 / chroma_qp_offset=-3 / threads=6 / lookahead_threads=1 / sliced_threads=0 / nr=0 / decimate=1 / interlaced=0 / bluray_compat=0 / constrained_intra=0 / bframes=7 / b_pyramid=2 / b_adapt=2 / b_bias=0 / direct=3 / weightb=1 / open_gop=0 / weightp=2 / keyint=240 / keyint_min=23 / scenecut=40 / intra_refresh=0 / rc=2pass / mbtree=0 / bitrate=10020 / ratetol=1.0 / qcomp=0.60 / qpmin=0 / qpmax=69 / qpstep=4 / cplxblur=20.0 / qblur=0.5 / ip_ratio=1.40 / pb_ratio=1.30 / aq=1:1.00
Language                                 : English
Default                                  : Yes
Forced                                   : No

Audio #1
ID                                       : 2
Format                                   : AC-3
Format/Info                              : Audio Coding 3
Mode extension                           : CM (complete main)
Codec ID                                 : A_AC3
Duration                                 : 1h 33mn
Bit rate mode                            : Constant
Bit rate                                 : 640 Kbps
Channel(s)                               : 6 channels
Channel positions                        : Front: L C R, Side: L R, LFE
Sampling rate                            : 48.0 KHz
Bit depth                                : 16 bits
Compression mode                         : Lossy
Stream size                              : 426 MiB (5%)
Title                                    : Дублированный
Language                                 : Russian
Default                                  : Yes
Forced                                   : No

Audio #2
ID                                       : 3
Format                                   : AC-3
Format/Info                              : Audio Coding 3
Mode extension                           : CM (complete main)
Codec ID                                 : A_AC3
Duration                                 : 1h 33mn
Bit rate mode                            : Constant
Bit rate                                 : 640 Kbps
Channel(s)                               : 6 channels
Channel positions                        : Front: L C R, Side: L R, LFE
Sampling rate                            : 48.0 KHz
Bit depth                                : 16 bits
Compression mode                         : Lossy
Stream size                              : 426 MiB (5%)
Title                                    : Авторский одноголосый (Д.Есарев)
Language                                 : Russian
Default                                  : No
Forced                                   : No

Audio #3
ID                                       : 4
Format                                   : AC-3
Format/Info                              : Audio Coding 3
Mode extension                           : CM (complete main)
Codec ID                                 : A_AC3
Duration                                 : 1h 33mn
Bit rate mode                            : Constant
Bit rate                                 : 640 Kbps
Channel(s)                               : 6 channels
Channel positions                        : Front: L C R, Side: L R, LFE
Sampling rate                            : 48.0 KHz
Bit depth                                : 16 bits
Compression mode                         : Lossy
Stream size                              : 426 MiB (5%)
Title                                    : English
Language                                 : English
Default                                  : No
Forced                                   : No

Text #1
ID                                       : 5
Format                                   : UTF-8
Codec ID                                 : S_TEXT/UTF8
Codec ID/Info                            : UTF-8 Plain Text
Title                                    : Russian
Language                                 : Russian
Default                                  : No
Forced                                   : No

Text #2
ID                                       : 6
Format                                   : UTF-8
Codec ID                                 : S_TEXT/UTF8
Codec ID/Info                            : UTF-8 Plain Text
Title                                    : Forced
Language                                 : Russian
Default                                  : Yes
Forced                                   : No

Text #3
ID                                       : 7
Format                                   : UTF-8
Codec ID                                 : S_TEXT/UTF8
Codec ID/Info                            : UTF-8 Plain Text
Title                                    : English
Language                                 : English
Default                                  : No
Forced                                   : No

Text #4
ID                                       : 8
Format                                   : UTF-8
Codec ID                                 : S_TEXT/UTF8
Codec ID/Info                            : UTF-8 Plain Text
Title                                    : SDH
Language                                 : English
Default                                  : No
Forced                                   : No

Menu
00:00:00.000                             : en:00:00:00.000
00:07:00.044                             : en:00:07:00.044
00:09:42.748                             : en:00:09:42.748
00:13:18.672                             : en:00:13:18.672
00:18:37.074                             : en:00:18:37.074
00:22:33.352                             : en:00:22:33.352
00:24:42.814                             : en:00:24:42.814
00:29:38.777                             : en:00:29:38.777
00:33:03.856                             : en:00:33:03.856
00:37:17.777                             : en:00:37:17.777
00:43:05.332                             : en:00:43:05.332
00:47:07.491                             : en:00:47:07.491
00:53:20.739                             : en:00:53:20.739
00:59:00.328                             : en:00:59:00.328
01:05:33.554                             : en:01:05:33.554
01:11:40.212                             : en:01:11:40.212
01:16:05.602                             : en:01:16:05.602
01:20:20.732                             : en:01:20:20.732
01:26:02.615                             : en:01:26:02.615
01:27:57.188                             : en:01:27:57.188

x264 [info]: frame I:604 Avg QP:13.83 size:181083
x264 [info]: frame P:47195 Avg QP:15.57 size: 79083
x264 [info]: frame B:86020 Avg QP:17.49 size: 36602



Скачать Париж: Город мёртвых через торрент http://i66.fastpic.ru/big/2014/1216/ec/52a17f6963c5801338ca3832f6e035ec.png Скачать, смотреть онлайн Париж: Город мёртвых бесплантно в хорошем качестве Описание::Величие Эйфелевой башни и роскошь бутиков, ароматы изысканной кухни и краски Елисейских полей - это лишь саван, под которым ... 9 10 14
Торрент: Зарегистрирован [2015-04-22 15:10] · скачан: 142 раз
Статус: √ проверено
Размер: 7.76 GB
Как cкачать? Как скачать Париж: Город мёртвых через торрент | UTorrent

% Раздел Тема Автор DL S | L
Фильмы с авторской озвучкой [ 1.46 GB ] Париж: Город мёртвых / As Above, So Below | | HDRip, Авторский одноголосый "Д. Есарев " coc900 Скачать
1 | 0
Фильмы 2014 [DVDrip, WEB-DLRip, HDrip] [ 1.37 GB ] Париж: Город мёртвых / As Above, So Below | iTunes | HDRip, Дубляж Ворон Скачать
1 | 0
Фильмы 2014 [DVDrip, WEB-DLRip, HDrip] [ 1.45 GB ] Париж: Город мёртвых / As Above, So Below | Лицензия | BDRip, Дубляж - [Лицензия Ворон Скачать
1 | 0
Фильмы (Blu-ray, BD-Remux, HDDVD) [ 25.82 GB ] Париж: Город мёртвых / As Above, So Below | DUB | 1080p Ворон Скачать
1 | 0
Фильмы (Blu-ray, BD-Remux, HDDVD) [ 29.67 GB ] Париж: Город мёртвых / As Above, So Below | Дубляж | Blu-ray, Дубляж Wollishofen Скачать
1 | 0
Фильмы [HD 720p, 1080p] (Хороший звук DUB, MVO) [ 14.73 GB ] Париж: Город мёртвых / As Above, So Below | AVO | 1080p Seedtank Скачать
1 | 0
Фильмы 2014 [DVDrip, WEB-DLRip, HDrip] [ 2.3 GB ] Париж: Город мёртвых / As Above, So Below | Лицензия | BDRip-AVC, Дубляж - Лицензия / iTunes _KaisiK_ Скачать
1 | 0

28-11-2019 20:33  


Отключить вcю реклaмy на сайте, в т.ч. и в плеере онлайн просмотра!

17-12-2014 19:30 Париж: Город мёртвых Скачать торрент  

Хороший фильм, мне очень понравился.



22-04-2015 15:48 Париж: Город мёртвых Скачать торрент  

ужастики редо смотрю,что там хорошего?



22-04-2015 16:38 Париж: Город мёртвых Скачать торрент  

Извините за выражение, но этот фильм... дерьмо. И тем более еще и редкое.



23-04-2015 06:26 Париж: Город мёртвых Скачать торрент  

А мне тоже понравился, довольно таки качественный и не обычный хорор.



    Дорогой пользователь! Огромная просьба, поблагодарите релизера, оцените раздачу и оставьте свои комментарий, если Вы скачали Париж: Город мёртвых через торрент бесплатно!!
    Комментировать посты могут только пользователи прошедшие не сложную регистрацию
    Показать сообщения:    


    Париж: Город мёртвых через торрент
    Скачать бесплатно Париж: Город мёртвых
    Париж: Город мёртвых скачать торрент
    Париж: Город мёртвых смотреть онлайн
    Cкачать фильм Париж: Город мёртвых бесплатно
    Париж: Город мёртвых скачать торрент в хорошем качестве
    Париж: Город мёртвых смотреть онлайн бесплатно в хорошем качестве
    Вы не можете начинать темы
    Вы не можете отвечать на сообщения
    Вы не можете редактировать свои сообщения
    Вы не можете удалять свои сообщения
    Вы не можете голосовать в опросах
    Вы не можете прикреплять файлы к сообщениям
    Вы можете скачивать файлы
    Париж: Город мёртвых / As Above, So Below [2014, ужасы, триллер, BDRip 1080p, Дублированный+Авторский ] смотреть онлайн, скачать торрент picoco.icu