Мега распродажа FORZA HORIZON 4 ULTIMATE+ВСЕ DLC+ОНЛАЙН всего за 499р. 349 руб. (супер цена). Внимание количество ограничено!!!

Лицензия

30

iTunes

мы

iTunes

1

1 сезон

Чернобыль

1 сезон

Ральф против интернета

MVO

Покемон. Детектив Пикачу

8 сезон

Игра престолов

iTunes

1+1

ИГРА 18+

pack

ВАЖНО

!!Акция!!

Alien_RageХит недели

RePack

Resident Evil 21
pack

RePack

Metro:Exodus

!!Акция!!

Alien_Rage

RePack

fifa19

RePack

Assassins Creed: Odyssey

RePack

NEED FOR SPEED™ PAYBACK

3 сезон

9 сезон

Бесстыжие 9 сезон

Все сериалы

все сериалы на PB.wtf

RePack

FAR CRY 5
Ребята, катастрофически не хватает 2730р. для оплаты серверов за МАЙ (всвязи с блокировками трафик упал в 3 раза), 1-2р., выручайте.
  

Тайна в его глазах / El secreto de sus ojos (Хуан Хосе Кампанелла) [2009, Триллер, драма, детектив, BDRip-AVC] MVO [Лицензия] pb.wtf

Тайна в его глазах через торрент pb.wtf

Размер: 2.18 GB | Добавлен: 4 года 2 мес. назад | Торрент скачан:218 раз
Скачать  

22-04-2015 18:23 Тайна в его глазах Скачать торрент  

Тайна в его глазах / El secreto de sus ojos
Год выпуска: 2009
Страна: Испания, Аргентина / El secreto de Sus Ojos, Televisión Española (TVE), Canal+ España...
Жанр: Триллер, драма, детектив
Продолжительность: 02:09:22
Перевод: Профессиональный (многоголосый) [R5]
Субтитры: Русские, английские, испанские

Режиссер: Хуан Хосе Кампанелла /Juan Jose Campanella

В ролях: Соледад Вилльямиль, Рикардо Дарин, Карла Кеведо, Пабло Раго, Хавьер Годино, Барбара Палладино, Руди Романо, Алехандра Абеленда, Марио Аларкон, Гильермо Франселла

Описание: Бенхамин Эспосито — судебный служащий, который решает написать роман об одном уголовном деле, в котором он был свидетелем и главным действующим лицом…



Качество: BDRip-AVC
Формат: MKV
Видео кодек: H.264
Аудио кодек: AC3
Видео: 1040x442 (2,35:1), 23,976 fps, 1517 kbps, 0.138 bit/pixel
Аудио#1: 48 kHz, AC3 Dolby Digital, 3/2 (L,C,R,l,r) + LFE ch, 448.00 kbps | RUS
Аудио#2: 48 kHz, AC3 Dolby Digital, 3/2 (L,C,R,l,r) + LFE ch, 448.00 kbps | SPA

Релиз группы:
Автор рипа: potroks

Общее
Уникальный идентификатор : 240825636503768201864051092936485043414 (0xB52D5499CDFBC3698A0CE831DED8FCD6)
Полное имя : Tayna.v.Ego.Glazah.2009.DUAL.BDRip.x264.-HELLYWOOD.mkv
Формат : Matroska
Версия формата : Version 4 / Version 2
Размер файла : 2,18 Гбайт
Продолжительность : 2 ч. 9 м.
Общий поток : 2414 Кбит/сек
Название фильма : El secreto de sus ojos (2009) - HELLYWOOD
Дата кодирования : UTC 2010-02-22 21:41:31
Программа кодирования : mkvmerge v5.8.0 ('No Sleep / Pillow') built on Sep 30 2012 10:57:14
Библиотека кодирования : libebml v1.3.0 + libmatroska v1.4.0

Видео
Идентификатор : 1
Формат : AVC
Формат/Информация : Advanced Video Codec
Профиль формата : High@L4.1
Параметр CABAC формата : Да
Параметр ReFrames формата : 10 кадров
Идентификатор кодека : V_MPEG4/ISO/AVC
Продолжительность : 2 ч. 9 м.
Битрейт : 1517 Кбит/сек
Ширина : 1040 пикселей
Высота : 442 пикселя
Соотношение сторон : 2,35:1
Режим частоты кадров : Постоянный
Частота кадров : 23,976 кадра/сек
Цветовое пространство : YUV
Субдискретизация насыщенности : 4:2:0
Битовая глубина : 8 бит
Тип развёртки : Прогрессивная
Бит/(Пиксели*Кадры) : 0.138
Размер потока : 1,33 Гбайт (61%)
Заголовок : potroks
Библиотека кодирования : x264 core 146 r2538 121396c
Настройки программы : cabac=1 / ref=10 / deblock=1:-3:-3 / analyse=0x3:0x113 / me=umh / subme=11 / psy=1 / psy_rd=1.00:0.05 / mixed_ref=1 / me_range=32 / chroma_me=1 / trellis=2 / 8x8dct=1 / cqm=0 / deadzone=21,11 / fast_pskip=0 / chroma_qp_offset=-3 / threads=12 / lookahead_threads=2 / sliced_threads=0 / nr=0 / decimate=0 / interlaced=0 / bluray_compat=0 / constrained_intra=0 / bframes=11 / b_pyramid=2 / b_adapt=2 / b_bias=0 / direct=3 / weightb=1 / open_gop=0 / weightp=2 / keyint=250 / keyint_min=25 / scenecut=40 / intra_refresh=0 / rc_lookahead=60 / rc=2pass / mbtree=0 / bitrate=1517 / ratetol=1.0 / qcomp=0.72 / qpmin=0 / qpmax=69 / qpstep=4 / cplxblur=20.0 / qblur=0.5 / vbv_maxrate=14000 / vbv_bufsize=14000 / nal_hrd=none / filler=0 / ip_ratio=1.35 / pb_ratio=1.25 / aq=1:0.80
Язык : English
Default : Да
Forced : Нет

Аудио #1
Идентификатор : 2
Формат : AC-3
Формат/Информация : Audio Coding 3
Расширение режима : CM (complete main)
Параметр Endianness формата : Big
Идентификатор кодека : A_AC3
Продолжительность : 2 ч. 9 м.
Вид битрейта : Постоянный
Битрейт : 448 Кбит/сек
Каналы : 6 каналов
Расположение каналов : Front: L C R, Side: L R, LFE
Частота : 48,0 КГц
Битовая глубина : 16 бит
Метод сжатия : С потерями
Размер потока : 415 Мбайт (19%)
Заголовок : MVO | DD 5.1 @ 448 kbps - R5
Язык : Russian
Default : Да
Forced : Нет

Аудио #2
Идентификатор : 3
Формат : AC-3
Формат/Информация : Audio Coding 3
Расширение режима : CM (complete main)
Параметр Endianness формата : Big
Идентификатор кодека : A_AC3
Продолжительность : 2 ч. 9 м.
Вид битрейта : Постоянный
Битрейт : 448 Кбит/сек
Каналы : 6 каналов
Расположение каналов : Front: L C R, Side: L R, LFE
Частота : 48,0 КГц
Битовая глубина : 16 бит
Метод сжатия : С потерями
Размер потока : 415 Мбайт (19%)
Заголовок : Original | DD 5.1 @ 448 kbps
Язык : Spanish
Default : Нет
Forced : Нет

Текст #1
Идентификатор : 4
Формат : UTF-8
Идентификатор кодека : S_TEXT/UTF8
Идентификатор кодека/Информация : UTF-8 Plain Text
Язык : Russian
Default : Нет
Forced : Нет

Текст #2
Идентификатор : 5
Формат : UTF-8
Идентификатор кодека : S_TEXT/UTF8
Идентификатор кодека/Информация : UTF-8 Plain Text
Язык : English
Default : Нет
Forced : Нет

Текст #3
Идентификатор : 6
Формат : UTF-8
Идентификатор кодека : S_TEXT/UTF8
Идентификатор кодека/Информация : UTF-8 Plain Text
Язык : Spanish
Default : Нет
Forced : Нет

Меню
00:00:00.000 : en:Chapter 1
00:10:03.060 : en:Chapter 2
00:18:46.917 : en:Chapter 3
00:26:59.701 : en:Chapter 4
00:33:27.588 : en:Chapter 5
00:40:40.396 : en:Chapter 6
00:47:17.334 : en:Chapter 7
00:55:41.421 : en:Chapter 8
01:00:35.840 : en:Chapter 9
01:05:49.946 : en:Chapter 10
01:16:23.579 : en:Chapter 11
01:25:10.980 : en:Chapter 12
01:34:59.110 : en:Chapter 13
01:39:37.596 : en:Chapter 14
01:46:36.264 : en:Chapter 15
01:55:26.544 : en:Chapter 16

pb.wtf



Скачать Тайна в его глазах через торрент http://pic.kartinco.top/images/11/ukjgl.jpg Скачать фильм Тайна в его глазах через торрент бесплантно в хорошем качестве Описание: Бенхамин Эспосито — судебный служащий, который решает написать роман об одном уголовном деле, в котором он был свидетелем и ... 10 10 6
Торрент: Зарегистрирован [2015-04-22 18:23] · скачан: 218 раз
Статус: √ проверено
Размер: 2.18 GB
Как cкачать? Как скачать Тайна в его глазах через торрент | qTorrent

% Раздел Тема Автор DL S | L
Фильмы [HD 720p, 1080p] (Хороший звук DUB, MVO) [ 12.02 GB ] Тайна в его глазах / El secreto de sus ojos [2009 BDRip 1080p] 2 x MVO AVO VO msltel Скачать
1 | 0
Фильмы (Blu-ray, BD-Remux, HDDVD) [ 30.23 GB ] Тайна в его глазах / El secreto de sus ojos [2009 BDRemux лицензия] кэп Скачать
1 | 0
Фильмы [HD 720p, 1080p] (Хороший звук DUB, MVO) [ 5.52 GB ] Тайна в его глазах / El secreto de sus ojos [2009 BDRip лицензия] ~Relizer~ Скачать
1 | 0
Фильмы 2009 [ 2.05 GB ] Тайна в его глазах / El secreto de sus ojos [2009 HDRip лицензия] Чупачупсик Скачать
1 | 0


>> Регистрируемся здесь <<






Отзывы и комментарии о схеме читаем и пишем здесь: ---> Отзывы и комментарии о схеме

Новые благодарочки в телеграм довольных пользователей:
скриншот   скриншот   скриншот   скриншот   скриншот
    Дорогой пользователь! Огромная просьба, поблагодарите релизера, оцените раздачу и оставьте свои комментарий, если Вы скачали Тайна в его глазах через торрент бесплатно! Внесите свою лепту в развитие PiratBit!
    Комментировать посты могут только пользователи прошедшие не сложную регистрацию
    Показать сообщения:    

    Тайна в его глазах через торрент
    Скачать бесплатно Тайна в его глазах
    Тайна в его глазах скачать торрент
    Тайна в его глазах смотреть онлайн
    Cкачать фильм Тайна в его глазах бесплатно
    Тайна в его глазах скачать торрент в хорошем качестве
    Тайна в его глазах смотреть онлайн бесплатно в хорошем качестве


    Вы не можете начинать темы
    Вы не можете отвечать на сообщения
    Вы не можете редактировать свои сообщения
    Вы не можете удалять свои сообщения
    Вы не можете голосовать в опросах
    Вы не можете прикреплять файлы к сообщениям
    Вы можете скачивать файлы