2 сезон

iTunes

MVO

1

2 сезон

iTunes

iTunes

1 сезон

RePack

30

Ultimate

ВАЖНО

ИГРА 18+

pack

RePack

MK11
pack

Легкие деньги

RePack

jed

RePack

fifa19

RePack

RDR2

RePack

NEED FOR SPEED™ PAYBACK

4 сезон

9 сезон

Бесстыжие 9 сезон

Все сериалы

все сериалы на PB.wtf

RePack

FAR CRY 5

Anonymous, доброй ночи, мы не успеваем собрать деньги на оплату серверов за декабрь и январь, помогите нам пожалуйста в это трудное время. В качестве благодарности мы отключим Вам всю рекламу на сайте (укажите свой ник в строку Ваше имя)!

×
  
Magnet ссылка

Под маской жиголо / Fading Gigolo (Джон Туртурро) [2013 г., комедия, WEB-DLRip, Дубляж] [iTunes Russia] pb.wtf

Под маской жиголо через торрент pb.wtf

Размер: 1.37 GB | Добавлен: 5 лет 8 мес. назад | Торрент скачан:366 раз
Скачать  

21-07-2014 04:10 Под маской жиголо Скачать торрент  

Под маской жиголо / Fading Gigolo

Год выпуска: 2013
Страна: США
Выпущено: Antidote Films (I)
Жанр: комедия
Продолжительность: 01:26:18
Перевод: Дубляж [iTunes Russia]

Режиссер: Джон Туртурро
Продюссер: Билл Блок, Пол Хэнсон, Джеффри Леви-Хинте
Сценарий: Джон Туртурро
Бюджет: $3 763 973
Премьера в мире: 7 сентября 2013

IMDB 6.40 (3590)


В ролях: Джон Туртурро, Вуди Аллен, Шэрон Стоун, София Вергара, Ванесса Паради, Лив Шрайбер, Тоня Пинкинс, Джейд Диксон, Обри Джозеф, Данте Хоагленд, Александр Рахленко, Александр Котов, Елена Харитонова, Ирина Киреева, Ольга Шорохова

Описание: Герой Вуди предлагает своему небогатому другу услуги сутенера в оригинальном бизнесе — любовных играх с состоятельными женщинами. И, казалось бы, все пошло как по маслу, но после череды комичных ляпов и позорных провалов, становится очевидно, что парни плывут против течения денег и любви...

Сэмпл

Качество: WEB-DLRip
Формат: AVI
Видео кодек: XviD
Аудио кодек: AC3
Видео: XviD, 1874 Кбит/с, 720x400, 25.000 fps, 0.260
Аудио: AC3, 6 ch, 384 Кбит/с, 48.0 KHz
General
Complete name : /home/sb753/files/P0d.Maskoy.J1gal0.2013.D.WEB-DLRip.1400MB.avi
Format : AVI
Format/Info : Audio Video Interleave
File size : 1.37 GiB
Duration : 1h 26mn
Overall bit rate : 2 268 Kbps
Writing application : VirtualDubMod 1.5.10.3 | www.virtualdub-fr.org || (build 2550/release)
Writing library : VirtualDubMod build 2550/release

Video
ID : 0
Format : MPEG-4 Visual
Format profile : Advanced Simple@L5
Format settings, BVOP : 2
Format settings, QPel : No
Format settings, GMC : No warppoints
Format settings, Matrix : Default (MPEG)
Codec ID : XVID
Codec ID/Hint : XviD
Duration : 1h 26mn
Bit rate : 1 874 Kbps
Width : 720 pixels
Height : 400 pixels
Display aspect ratio : 16:9
Frame rate : 25.000 fps
Color space : YUV
Chroma subsampling : 4:2:0
Bit depth : 8 bits
Scan type : Progressive
Compression mode : Lossy
Bits/(Pixel*Frame) : 0.260
Stream size : 1.13 GiB (83%)
Writing library : XviD 1.2.1 (UTC 2008-12-04)

Audio
ID : 1
Format : AC-3
Format/Info : Audio Coding 3
Mode extension : CM (complete main)
Format settings, Endianness : Big
Codec ID : 2000
Duration : 1h 26mn
Bit rate mode : Constant
Bit rate : 384 Kbps
Channel(s) : 6 channels
Channel positions : Front: L C R, Side: L R, LFE
Sampling rate : 48.0 KHz
Bit depth : 16 bits
Compression mode : Lossy
Stream size : 237 MiB (17%)
Alignment : Split accross interleaves
Interleave, duration : 40 ms (1.00 video frame)
Interleave, preload duration : 500 ms
pb.wtf



Скачать Под маской жиголо через торрент http://i67.fastpic.ru/big/2014/0721/38/b0a32911dc9fe6b7c185aa9b44aec938.png Скачать фильм Под маской жиголо через торрент бесплантно в хорошем качестве Описание: Герой Вуди предлагает своему небогатому другу услуги сутенера в оригинальном бизнесе — любовных играх с состоятельными женщинами. ... 9.6 10 28
Info! Золотая раздача, скачанное не засчитывается.
Торрент: Зарегистрирован [2015-04-23 06:28] · скачан: 366 раз
Статус: √ проверено
Размер: 1.37 GB
Как cкачать? Как скачать Под маской жиголо через торрент | UTorrent

% Раздел Тема Автор DL S | L
Фильмы 2013 [DVDrip, WEB-DLRip, HDrip] [ 1.37 GB ] Под маской жиголо / Fading Gigolo [2013 HDRip] DUB GEKADOL Скачать
1 | 0
Фильмы [HD 720p, 1080p] (Хороший звук DUB, MVO) [ 10.74 GB ] Под маской жиголо / Fading Gigolo [2013 BDRip 1080p] DUB msltel Скачать
1 | 0
Фильмы [HD 720p, 1080p] (Хороший звук DUB, MVO) [ 4.14 GB ] Под маской жиголо / Fading Gigolo [2013 BDRip 720p] DUB msltel Скачать
1 | 0

28-11-2019 20:33  

Отключить всю рекламу на сайте

21-07-2014 07:14 Под маской жиголо Скачать торрент  

как фильм?pb.wtf



23-04-2015 07:40 Под маской жиголо Скачать торрент  

Я чего-то подумал что название*Дом под мостам жиголо* pb.wtf



17-10-2015 21:29 Под маской жиголо Скачать торрент  

Ниче так фильмец на разок. Будучи одним из многих раньше, которые млели от Шэрон за пару секунд, сейчас чото подобного не испытал. Годы, епрст. И не нравится еще, когда Вуди Аллен в диалогах с "Человеком, достойным уважения" тараторит, не глядя в глаза собеседнику. Автору спс.pb.wtf



    Дорогой пользователь! Огромная просьба, поблагодарите релизера, оцените раздачу и оставьте свои комментарий, если Вы скачали Под маской жиголо через торрент бесплатно! Внесите свою лепту в развитие PiratBit!
    Комментировать посты могут только пользователи прошедшие не сложную регистрацию
    Показать сообщения:    

    Под маской жиголо через торрент
    Скачать бесплатно Под маской жиголо
    Под маской жиголо скачать торрент
    Под маской жиголо смотреть онлайн
    Cкачать фильм Под маской жиголо бесплатно
    Под маской жиголо скачать торрент в хорошем качестве
    Под маской жиголо смотреть онлайн бесплатно в хорошем качестве


    Вы не можете начинать темы
    Вы не можете отвечать на сообщения
    Вы не можете редактировать свои сообщения
    Вы не можете удалять свои сообщения
    Вы не можете голосовать в опросах
    Вы не можете прикреплять файлы к сообщениям
    Вы можете скачивать файлы