MEGA NEWS Получи личный уникальный адрес сайта и защити себя от блокировок. Внимание количество ограничено!!!

iTunes

1+1

iTunes

мы

iTunes

1

iTunes

Чернобыль

iTunes

Ральф против интернета

Лицензия

ПШазам

Лицензия

Игра престолов

Лицензия

30
pack

ВАЖНО

!!Акция!!

Alien_RageХит недели

RePack

Resident Evil 21

ИГРА 18+

pack

RePack

Metro:Exodus

!!Акция!!

Alien_Rage

RePack

fifa19

RePack

Assassins Creed: Odyssey

RePack

NEED FOR SPEED™ PAYBACK

3 сезон

9 сезон

Бесстыжие 9 сезон

Все сериалы

все сериалы на PB.wtf

RePack

FAR CRY 5
Ребята, катастрофически не хватает 1900р. для оплаты серверов за АВГУСТ (всвязи с блокировками трафик упал в 3 раза), 1-2р., выручайте.
  

Ч/Б (Евгений Шелякин) [2014, Россия, комедия, криминал, фантастика, WEB-DL 1080p,] Оригинал [iTunes] pb.wtf

Ч через торрент pb.wtf

Размер: 3 GB | Добавлен: 4 года 5 мес. назад | Торрент скачан:466 раз
Скачать  

24-04-2015 01:19 Ч Скачать торрент  

Ч/Б
«Ангелам закон не писан»


Год выпуска: 2014
Страна: Россия
Жанр: комедия, криминал, фантастика
Продолжительность: 01:29:04
Перевод: Оригинал [iTunes]
Субтитры: Нет
Режиссер: Евгений Шелякин
В ролях:

Алексей Чадов (Ярослав), Мераб Нинидзе (Нурик), Сергей Маковецкий (Алхан), Гурам Баблишвили (Элиханов), Бесо Гатаев (Гусейн), Кахи Кавсадзе (дедушка Магомед), Екатерина Редникова (Тамара), Мария Андреева (Вика), Мария Звонарева (Галина), Андрей Руденский (Глеб), Сергей Годин (Юра), Руслан Ягудин (Леша)
Описание:
Наши дни. Опасного авторитета-интеллектуала Алхана одновременно решают ограбить обманутый им Ярослав и мелкий жулик Нурик. По случайности во время их столкновения Нурик погибает, но возвращается в мир с миссией: быть ангелом-хранителем Ярослава. Вот только Ярослав при этом страдает «аллергией на Кавказ». Мистическим образом скованные вместе, эти двое вынуждены искать общий язык и спасаться от жаждущего расправы Алхана с его подручными.
    Качество: WEB-DL 1080p
    Формат: MKV
    Видео кодек: AVC
    Аудио кодек:AC3
    Видео: AVC, 1920x800 (2.40:1), 4346 kbps, 25 fps, 0,113 bpp
    Аудио: русский / AC3 / 5.1 / 48 kHz / 384 kbps / 16 bit ||


Код:

General
Unique ID                                : 189529674726377547413420814712730135019 (0x8E96166C5595114AAA5F7E42B1BDA9EB)
Complete name                            : D:\Games\4.B.2015.O.WEB-DL.1080p_.mkv
Format                                   : Matroska
Format version                           : Version 4 / Version 2
File size                                : 3.00 GiB
Duration                                 : 1h 29mn
Overall bit rate                         : 4 827 Kbps
Encoded date                             : UTC 2015-04-23 21:21:00
Writing application                      : mkvmerge v7.6.0 ('Garden of Dreams') 32bit built on Feb  8 2015 12:51:39
Writing library                          : libebml v1.3.1 + libmatroska v1.4.2
DURATION                                 : 01:29:04.544000000
NUMBER_OF_FRAMES                         : 167017
NUMBER_OF_BYTES                          : 256538112
_STATISTICS_WRITING_APP                  : mkvmerge v7.6.0 ('Garden of Dreams') 32bit built on Feb  8 2015 12:51:39
_STATISTICS_WRITING_DATE_UTC             : 2015-04-23 21:21:00
_STATISTICS_TAGS                         : BPS DURATION NUMBER_OF_FRAMES NUMBER_OF_BYTES

Video
ID                                       : 1
Format                                   : AVC
Format/Info                              : Advanced Video Codec
Format profile                           : High@L4.0
Format settings, CABAC                   : Yes
Format settings, ReFrames                : 5 frames
Codec ID                                 : V_MPEG4/ISO/AVC
Duration                                 : 1h 29mn
Bit rate                                 : 4 347 Kbps
Width                                    : 1 920 pixels
Height                                   : 800 pixels
Display aspect ratio                     : 2.40:1
Frame rate                               : 25.000 fps
Color space                              : YUV
Chroma subsampling                       : 4:2:0
Bit depth                                : 8 bits
Scan type                                : Progressive
Bits/(Pixel*Frame)                       : 0.113
Stream size                              : 2.70 GiB (90%)
Language                                 : English
Default                                  : Yes
Forced                                   : No
Color primaries                          : BT.709-5, BT.1361, IEC 61966-2-4, SMPTE RP177
Transfer characteristics                 : BT.709-5, BT.1361
Matrix coefficients                      : BT.709-5, BT.1361, IEC 61966-2-4 709, SMPTE RP177

Audio
ID                                       : 2
Format                                   : AC-3
Format/Info                              : Audio Coding 3
Mode extension                           : CM (complete main)
Codec ID                                 : A_AC3
Duration                                 : 1h 29mn
Bit rate mode                            : Constant
Bit rate                                 : 384 Kbps
Channel(s)                               : 6 channels
Channel positions                        : Front: L C R, Side: L R, LFE
Sampling rate                            : 48.0 KHz
Bit depth                                : 16 bits
Compression mode                         : Lossy
Stream size                              : 245 MiB (8%)
Language                                 : Russian
Default                                  : Yes
Forced                                   : No

Menu
00:00:00.000                             : en:Глава 1
00:01:34.000                             : en:Глава 2
00:04:55.000                             : en:Глава 3
00:08:54.000                             : en:Глава 4
00:13:33.000                             : en:Глава 5
00:18:07.000                             : en:Глава 6
00:22:26.000                             : en:Глава 7
00:28:06.000                             : en:Глава 8
00:33:28.000                             : en:Глава 9
00:37:56.000                             : en:Глава 10
00:44:28.000                             : en:Глава 11
00:49:31.000                             : en:Глава 12
00:55:14.000                             : en:Глава 13
00:59:56.000                             : en:Глава 14
01:06:03.000                             : en:Глава 15
01:09:47.000                             : en:Глава 16
01:15:40.000                             : en:Глава 17
01:21:19.000                             : en:Глава 18


Скриншоты:
pb.wtf



Скачать Ч через торрент http://i5.imageban.ru/out/2015/04/24/93469b2757e2a9aa0c4b6fc5b9fd5066.jpg Скачать фильм Ччерез торрент бесплантно в хорошем качестве Описание: Наши дни. Опасного авторитета-интеллектуала Алхана одновременно решают ограбить обманутый им Ярослав и мелкий жулик Нурик. По ... 9.9 10 13
Info! Серебряная раздача, засчитывается только 50% скачанного.
Торрент: Зарегистрирован [2015-04-24 01:19] · скачан: 466 раз
Статус: T временная
Размер: 3 GB
Как cкачать? Как скачать Ч через торрент | qTorrent

% Раздел Тема Автор DL S | L
Отечественный Рэп, Хип-Хоп [ 54 MB ] Барбитурный - Ч/б 2016 / MP3 / 320 kbps / Рэп bober100 Скачать
1 | 0
Наши новые фильмы 2014 [ 1.42 GB ] Ч/Б [2014 Россия WEB-DLRip-AVC] Оригинал От R.G. PiratFilms White Smoke Скачать
1 | 0
Наши новые фильмы 2014 [ 1.37 GB ] Ч/Б [2014 Россия WEB-DLRip[ Оригинал White Smoke Скачать
1 | 0


>> Регистрируемся здесь <<






Отзывы и комментарии о схеме читаем и пишем здесь: ---> Отзывы и комментарии о схеме

Новые благодарочки в телеграм довольных пользователей:
скриншот   скриншот   скриншот   скриншот   скриншот

25-04-2015 10:54 Ч Скачать торрент  

Отличная комедия! даже и не слышал об этом фильме,спасибо.pb.wtf



04-10-2015 15:13 Ч Скачать торрент  

Фильм замечательный, много смеялся.
Все нации должны жить дружно.
Качество неплохое.
Спасибо за раздачу.pb.wtf



    Дорогой пользователь! Огромная просьба, поблагодарите релизера, оцените раздачу и оставьте свои комментарий, если Вы скачали Ч через торрент бесплатно! Внесите свою лепту в развитие PiratBit!
    Комментировать посты могут только пользователи прошедшие не сложную регистрацию
    Показать сообщения:    

    Ч через торрент
    Скачать бесплатно Ч
    Ч скачать торрент
    Ч смотреть онлайн
    Cкачать фильм Ч бесплатно
    Ч скачать торрент в хорошем качестве
    Ч смотреть онлайн бесплатно в хорошем качестве


    Вы не можете начинать темы
    Вы не можете отвечать на сообщения
    Вы не можете редактировать свои сообщения
    Вы не можете удалять свои сообщения
    Вы не можете голосовать в опросах
    Вы не можете прикреплять файлы к сообщениям
    Вы можете скачивать файлы