Ссылка на приватное зеркало всего за 1$. Внимание количество ограничено!!!

iTunes

iTunes

iTunes

1

iTunes

iTunes

iTunes

iTunes

iTunes

30
pack

Новость дня

ВАЖНО

!!Акция!!

Alien_RageХит недели

RePack

Resident Evil 21

ИГРА 18+

pack

RePack

jed

!!Акция!!

Alien_Rage

RePack

fifa19

RePack

Assassins Creed: Odyssey

RePack

NEED FOR SPEED™ PAYBACK

4 сезон

9 сезон

Бесстыжие 9 сезон

Все сериалы

все сериалы на PB.wtf

RePack

FAR CRY 5
  

Призрак (Александр Войтинский) [2015, Россия, комедия, семейный, WEB-DLRip-AVC,] Оригинал [iTunes] От R.G. PiratFilms pb.wtf

Призрак через торрент pb.wtf

Размер: 1.28 GB | Добавлен: 5 лет 1 мес. назад | Торрент скачан:805 раз
Скачать  

24-04-2015 02:25 Призрак Скачать торрент  




Призрак


Год выпуска: 2015
Страна: Россия
Жанр: комедия, семейный

Продолжительность: 01:53:43
Перевод: Оригинал [iTunes]
Субтитры: Нет
Режиссер: Александр Войтинский
В ролях:

Фёдор Бондарчук (Юрий Гордеев), Семен Трескунов (Ваня), Ян Цапник (Гена), Анна Антонова (Елена), Игорь Угольников (Ползунов), Ксения Лаврова-Глинка (мама), Софья Райзман (Эмили), Ани Петросян (Полина), Алексей Лукин (Стас), Ольга Кузьмина (Оленька), Сергей Бурунов (психолог), Игорь Кистол (специалист по призракам)
Описание:
Еще вчера Юрий Гордеев - амбициозный авиаконструктор и любимец женщин - был в шаге от своего триумфа. Его самолет ЮГ-1 должен был стать настоящим прорывом в отечественной авиации. Но сегодня его никто не видит и не слышит, и конкурент по бизнесу беспрепятственно закрывает его компанию. Все потому, что Юра разбился в автокатастрофе и стал призраком.
Семиклассник Ваня Кузнецов был пустым местом всегда. Жертва гиперопеки матери, объект насмешек одноклассников, он боится даже заговорить с девочкой, в которую давно влюблен. У Юры есть неделя, чтобы закончить дело своей жизни и поднять самолет в воздух. Ваня - единственный, кто его видит и может ему помочь.
    Качество: WEB-DLRip-AVC (исх.WEB-DLRip 1080р)
    Формат: MKV
    Видео кодек: AVC
    Аудио кодек:AC3
    Видео: AVC, 1024x426 (2.40:1), 1223 kbps, 24 fps, 0,117 bpp
    Аудио: русский / AC3 / 5.1 / 48 kHz / 384 kbps / 16 bit ||


Код:

---[Information] [23.04.2015 5:29:13] x264 [info]: frame I:1967  Avg QP:16.38  size: 47168  PSNR Mean Y:48.13 U:49.99 V:50.33 Avg:48.69 Global:48.35
---[Information] [23.04.2015 5:29:13] x264 [info]: frame P:41468 Avg QP:19.67  size: 12786  PSNR Mean Y:45.37 U:48.66 V:48.62 Avg:46.16 Global:45.63
---[Information] [23.04.2015 5:29:13] x264 [info]: frame B:120330 Avg QP:21.78  size:  3490  PSNR Mean Y:45.07 U:48.58 V:48.47 Avg:45.90 Global:45.26
---[Information] [23.04.2015 5:29:13] x264 [info]: consecutive B-frames:  2.2%  4.8%  4.9% 69.1%  4.8%  7.3%  1.2%  4.5%  0.3%  0.5%  0.4%

Код:

General
Unique ID                                : 188641382779588910705719183866139271440 (0x8DEB023FB4D685858D579A8110906110)
Complete name                            : D:\рипы От R.G. PiratFilms\Pr1zrak.WEB DLRip-AVC.by.White Smoke.R.G.PiratFilms.mkv
Format                                   : Matroska
Format version                           : Version 4 / Version 2
File size                                : 1.28 GiB
Duration                                 : 1h 53mn
Overall bit rate                         : 1 609 Kbps
Encoded date                             : UTC 2015-04-24 01:57:05
Writing application                      : mkvmerge v7.6.0 ('Garden of Dreams') 64bit built on Feb  8 2015 13:04:34
Writing library                          : libebml v1.3.1 + libmatroska v1.4.2
_STATISTICS_WRITING_APP                  : mkvmerge v7.6.0 ('Garden of Dreams') 64bit built on Feb  8 2015 13:04:34
_STATISTICS_WRITING_DATE_UTC             : 2015-04-24 01:57:05
_STATISTICS_TAGS                         : BPS DURATION NUMBER_OF_FRAMES NUMBER_OF_BYTES
DURATION                                 : 01:53:43.552000000
NUMBER_OF_FRAMES                         : 213236
NUMBER_OF_BYTES                          : 327530496

Video
ID                                       : 1
Format                                   : AVC
Format/Info                              : Advanced Video Codec
Format profile                           : High@L4.1
Format settings, CABAC                   : Yes
Format settings, ReFrames                : 12 frames
Codec ID                                 : V_MPEG4/ISO/AVC
Duration                                 : 1h 53mn
Bit rate                                 : 1 223 Kbps
Width                                    : 1 024 pixels
Height                                   : 426 pixels
Display aspect ratio                     : 2.40:1
Frame rate                               : 24.000 fps
Color space                              : YUV
Chroma subsampling                       : 4:2:0
Bit depth                                : 8 bits
Scan type                                : Progressive
Bits/(Pixel*Frame)                       : 0.117
Stream size                              : 970 MiB (74%)
Writing library                          : x264 core 146 r2538 121396c
Encoding settings                        : cabac=1 / ref=12 / deblock=1:-3:-3 / analyse=0x3:0x113 / me=umh / subme=9 / psy=1 / psy_rd=1.00:0.00 / mixed_ref=1 / me_range=32 / chroma_me=1 / trellis=1 / 8x8dct=1 / cqm=0 / deadzone=21,11 / fast_pskip=1 / chroma_qp_offset=-2 / threads=6 / lookahead_threads=1 / sliced_threads=0 / nr=0 / decimate=1 / interlaced=0 / bluray_compat=0 / constrained_intra=0 / bframes=10 / b_pyramid=2 / b_adapt=2 / b_bias=10 / direct=1 / weightb=0 / open_gop=0 / weightp=2 / keyint=240 / keyint_min=24 / scenecut=40 / intra_refresh=0 / rc_lookahead=40 / rc=2pass / mbtree=1 / bitrate=1223 / ratetol=1.0 / qcomp=0.65 / qpmin=0 / qpmax=69 / qpstep=4 / cplxblur=20.0 / qblur=0.5 / ip_ratio=1.40 / aq=1:1.00
Language                                 : English
Default                                  : Yes
Forced                                   : No
DURATION                                 : 01:53:43.542000000
NUMBER_OF_FRAMES                         : 163765
NUMBER_OF_BYTES                          : 1043002964
_STATISTICS_WRITING_APP                  : mkvmerge v7.6.0 ('Garden of Dreams') 64bit built on Feb  8 2015 13:04:34
_STATISTICS_WRITING_DATE_UTC             : 2015-04-24 01:57:05
_STATISTICS_TAGS                         : BPS DURATION NUMBER_OF_FRAMES NUMBER_OF_BYTES

Audio
ID                                       : 2
Format                                   : AC-3
Format/Info                              : Audio Coding 3
Mode extension                           : CM (complete main)
Codec ID                                 : A_AC3
Duration                                 : 1h 53mn
Bit rate mode                            : Constant
Bit rate                                 : 384 Kbps
Channel(s)                               : 6 channels
Channel positions                        : Front: L C R, Side: L R, LFE
Sampling rate                            : 48.0 KHz
Bit depth                                : 16 bits
Compression mode                         : Lossy
Stream size                              : 312 MiB (24%)
Language                                 : Russian
Default                                  : Yes
Forced                                   : No


Скриншоты:
pb.wtf



Скачать Призрак через торрент http://i5.imageban.ru/out/2015/01/28/01859fe8d4e21166f16a4c733dadb0aa.gif Скачать фильм Призрак через торрент бесплантно в хорошем качестве Описание: Еще вчера Юрий Гордеев - амбициозный авиаконструктор и любимец женщин - был в шаге от своего триумфа. Его самолет ЮГ-1 должен был ... 9.4 10 25
Info! Золотая раздача, скачанное не засчитывается.
Торрент: Зарегистрирован [2015-04-24 02:25] · скачан: 805 раз
Статус: √ проверено
Размер: 1.28 GB
Как cкачать? Как скачать Призрак через торрент | qTorrent

28-11-2019 20:33  

Отключить всю рекламу на сайте

01-05-2015 17:19 Призрак Скачать торрент  

Спс за кинчик =))pb.wtf



22-05-2015 07:00 Призрак Скачать торрент  

Шикарный фильм, очень понравился, чуть не заплакал в конце, побольше бы таких шедевров pb.wtf



    Дорогой пользователь! Огромная просьба, поблагодарите релизера, оцените раздачу и оставьте свои комментарий, если Вы скачали Призрак через торрент бесплатно! Внесите свою лепту в развитие PiratBit!
    Комментировать посты могут только пользователи прошедшие не сложную регистрацию
    Показать сообщения:    

    Призрак через торрент
    Скачать бесплатно Призрак
    Призрак скачать торрент
    Призрак смотреть онлайн
    Cкачать фильм Призрак бесплатно
    Призрак скачать торрент в хорошем качестве
    Призрак смотреть онлайн бесплатно в хорошем качестве


    Вы не можете начинать темы
    Вы не можете отвечать на сообщения
    Вы не можете редактировать свои сообщения
    Вы не можете удалять свои сообщения
    Вы не можете голосовать в опросах
    Вы не можете прикреплять файлы к сообщениям
    Вы можете скачивать файлы