Ссылка на приватное зеркало нашего сайта всего за 1$. Внимание количество ограничено!!!

2 сезон

iTunes

1 сезон

1

iTunes

iTunes

iTunes

1 сезон

RePack

30

ИГРА 18+

pack

ВАЖНО

!!Акция!!

Alien_RageХит недели

RePack

MK11
pack

Забери бонус

RePack

jed

!!Акция!!

Alien_Rage

RePack

fifa19

RePack

Assassins Creed: Odyssey

RePack

NEED FOR SPEED™ PAYBACK

4 сезон

9 сезон

Бесстыжие 9 сезон

Все сериалы

все сериалы на PB.wtf

RePack

FAR CRY 5
  

Капля / The Blob (Чак Расселл) [1988, ужасы, фантастика, BDRip 1080p] DVO, VO pb.wtf

Капля через торрент pb.wtf

Размер: 13.34 GB | Добавлен: 5 лет 6 мес. назад | Торрент скачан:59 раз
Скачать  

24-04-2015 07:32 Капля Скачать торрент  


Название: Капля
Оригинальное название: The Blob
Год выпуска: 1988
Страна: США
Жанр: ужасы, фантастика
Продолжительность: 01:35:01
Перевод: профессиональный двухголосый, любительский одноголосый

Режиссёр: Чак Расселл

В ролях: Кевин Диллон, Шоуни Смит, Эрика Элениак, Донован Лейтч, Джеффри ДеМанн, Кэнди Кларк, Джо Сенека, Дел Клоуз, Пол МакКрейн, Шарон Спелман, Биу Биллингсли

Описание: Метеорит принёс на землю страшное вещество. Жидкая плазма пожирает всё на своём пути. И чем больше жертв оказывается в её бездонных недрах, тем больше становится этот сгусток черной энергии, несущей смерть. Жители маленького американского городка не верят в страшные рассказы о дьявольской субстанции. А тем временем кровавая масса уже приближается к его окраине... Фильм снят по произведению Ирвин Х. Миллгейт.



Качество: BDRip 1080p Сравнение с исходником
Формат: MKV
Видео кодек: H.264
Аудио кодек: AC3, DTS
Видео: MPEG-4 AVC, 17.8 Mбит/с, 1920x1036, 23,976 кадра/с
Аудио 1: русский, AC3, 192 kbps, 2 ch, 48 kHz [профессиональный двухголосый, Ren TV]
Аудио 2: русский, AC3, 192 kbps, 2 ch, 48 kHz [любительский одноголосый]
Аудио 3: английский, DTS, 1509 kbps, 6 ch, 48 kHz [оригинал]
Субтитры: английские
Сатурн, 1990 год
Номинации (2):
Лучший научно-фантастический фильм
Лучшая музыка
frame I:751 Avg QP:19.66 size:213599
frame P:26399 Avg QP:20.59 size:153179
frame B:109517 Avg QP:23.43 size: 80025

Общее
Уникальный идентификатор : 200686227022205274614478975729361828087 (0x96FAC2EB6D0FBBF184E22A17BABD38F7)
Полное имя : D:VideoКапля.1988.BDRip.1080p.mkv
Формат : Matroska
Версия формата : Version 4 / Version 2
Размер файла : 13,3 Гбайт
Продолжительность : 1 ч. 35 м.
Общий поток : 20,1 Мбит/сек
Название фильма : BDRip -- STarankov
Дата кодирования : UTC 2015-04-24 02:46:17
Программа кодирования : mkvmerge v7.8.0 ('River Man') 64bit built on Mar 27 2015 16:31:37
Библиотека кодирования : libebml v1.3.1 + libmatroska v1.4.2
_STATISTICS_WRITING_APP : mkvmerge v7.8.0 ('River Man') 64bit built on Mar 27 2015 16:31:37
_STATISTICS_WRITING_DATE_UTC : 2015-04-24 02:46:17
_STATISTICS_TAGS : BPS DURATION NUMBER_OF_FRAMES NUMBER_OF_BYTES
DURATION : 01:35:01.323000000
NUMBER_OF_FRAMES : 534499
NUMBER_OF_BYTES : 1075412056

Видео
Идентификатор : 1
Формат : AVC
Формат/Информация : Advanced Video Codec
Профиль формата : High@L4.1
Параметр CABAC формата : Да
Параметр ReFrames формата : 4 кадра
Идентификатор кодека : V_MPEG4/ISO/AVC
Продолжительность : 1 ч. 35 м.
Битрейт : 17,8 Мбит/сек
Ширина : 1920 пикселей
Высота : 1036 пикселей
Соотношение сторон : 1,85:1
Режим частоты кадров : Постоянный
Частота кадров : 23,976 кадра/сек
Цветовое пространство : YUV
Субдискретизация насыщенности : 4:2:0
Битовая глубина : 8 бит
Тип развёртки : Прогрессивная
Бит/(Пиксели*Кадры) : 0.373
Размер потока : 11,8 Гбайт (89%)
Библиотека кодирования : x264 core 146 r2538 121396c
Настройки программы : cabac=1 / ref=4 / deblock=1:-1:-1 / analyse=0x3:0x113 / me=umh / subme=10 / psy=1 / psy_rd=1.00:0.15 / mixed_ref=1 / me_range=32 / chroma_me=1 / trellis=2 / 8x8dct=1 / cqm=0 / deadzone=21,11 / fast_pskip=1 / chroma_qp_offset=-3 / threads=6 / lookahead_threads=1 / sliced_threads=0 / nr=0 / decimate=1 / interlaced=0 / bluray_compat=0 / constrained_intra=0 / bframes=9 / b_pyramid=2 / b_adapt=2 / b_bias=0 / direct=1 / weightb=1 / open_gop=0 / weightp=2 / keyint=230 / keyint_min=23 / scenecut=40 / intra_refresh=0 / rc_lookahead=40 / rc=crf / mbtree=0 / crf=21.0 / qcomp=0.60 / qpmin=0 / qpmax=69 / qpstep=4 / vbv_maxrate=40000 / vbv_bufsize=50000 / crf_max=0.0 / nal_hrd=none / filler=0 / ip_ratio=1.40 / pb_ratio=1.30 / aq=1:1.00
Язык : English
Default : Да
Forced : Нет
DURATION : 01:35:00.153000000
NUMBER_OF_FRAMES : 136667
NUMBER_OF_BYTES : 12968257570
_STATISTICS_WRITING_APP : mkvmerge v7.8.0 ('River Man') 64bit built on Mar 27 2015 16:31:37
_STATISTICS_WRITING_DATE_UTC : 2015-04-24 02:46:17
_STATISTICS_TAGS : BPS DURATION NUMBER_OF_FRAMES NUMBER_OF_BYTES

Аудио #1
Идентификатор : 2
Формат : AC-3
Формат/Информация : Audio Coding 3
Расширение режима : CM (complete main)
Параметр Endianness формата : Big
Идентификатор кодека : A_AC3
Продолжительность : 1 ч. 35 м.
Вид битрейта : Постоянный
Битрейт : 192 Кбит/сек
Каналы : 2 канала
Расположение каналов : Front: L R
Частота : 48,0 КГц
Битовая глубина : 16 бит
Метод сжатия : С потерями
Размер потока : 130 Мбайт (1%)
Заголовок : DVO (Ren TV)
Язык : Russian
Default : Да
Forced : Нет

Аудио #2
Идентификатор : 3
Формат : AC-3
Формат/Информация : Audio Coding 3
Расширение режима : CM (complete main)
Параметр Endianness формата : Big
Идентификатор кодека : A_AC3
Продолжительность : 1 ч. 35 м.
Вид битрейта : Постоянный
Битрейт : 192 Кбит/сек
Каналы : 2 канала
Расположение каналов : Front: L R
Частота : 48,0 КГц
Битовая глубина : 16 бит
Метод сжатия : С потерями
Размер потока : 130 Мбайт (1%)
Заголовок : VO (одноголосый закадровый)
Язык : Russian
Default : Нет
Forced : Нет

Аудио #3
Идентификатор : 4
Формат : DTS
Формат/Информация : Digital Theater Systems
Режим : 16
Параметр Endianness формата : Big
Идентификатор кодека : A_DTS
Продолжительность : 1 ч. 35 м.
Вид битрейта : Постоянный
Битрейт : 1509 Кбит/сек
Каналы : 6 каналов
Расположение каналов : Front: L C R, Side: L R, LFE
Частота : 48,0 КГц
Битовая глубина : 24 бит
Метод сжатия : С потерями
Размер потока : 1,00 Гбайт (8%)
Заголовок : Original
Язык : English
Default : Нет
Forced : Нет

Текст
Идентификатор : 5
Формат : UTF-8
Идентификатор кодека : S_TEXT/UTF8
Идентификатор кодека/Информация : UTF-8 Plain Text
Заголовок : английские
Язык : English
Default : Нет
Forced : Нет
pb.wtf



Скачать Капля через торрент http://i47.fastpic.ru/big/2015/0422/64/c8b8f840f0272bd6bab6df6d0d6e1264.jpg Скачать фильм Капля через торрент бесплантно в хорошем качестве Описание: Метеорит принёс на землю страшное вещество. Жидкая плазма пожирает всё на своём пути. И чем больше жертв оказывается в её ... 7 10 3
Info! Золотая раздача, скачанное не засчитывается.
Торрент: Зарегистрирован [2015-04-24 07:32] · скачан: 59 раз
Статус: √ проверено
Размер: 13.34 GB
Как cкачать? Как скачать Капля через торрент | qTorrent

% Раздел Тема Автор DL S | L
Фильмы [HD 720p, 1080p] (Хороший звук DUB, MVO) [ 4.31 GB ] Капля / The Blob [1988 BDRip 720p] DVO VO msltel Скачать
1 | 0
Фильмы до 2000 г. [ 2.42 GB ] Капля / The Blob [1988 BDRip AVC] DVO VO msltel Скачать
1 | 0

28-11-2019 20:33  

Отключить всю рекламу на сайте

24-04-2015 09:19 Капля Скачать торрент  

как фильм?pb.wtf



24-04-2015 12:04 Капля Скачать торрент  

shurgan1980 писал(а):

как фильм?

Суперский фильм! Советую посмотреть!pb.wtf



    Дорогой пользователь! Огромная просьба, поблагодарите релизера, оцените раздачу и оставьте свои комментарий, если Вы скачали Капля через торрент бесплатно! Внесите свою лепту в развитие PiratBit!
    Комментировать посты могут только пользователи прошедшие не сложную регистрацию
    Показать сообщения:    

    Капля через торрент
    Скачать бесплатно Капля
    Капля скачать торрент
    Капля смотреть онлайн
    Cкачать фильм Капля бесплатно
    Капля скачать торрент в хорошем качестве
    Капля смотреть онлайн бесплатно в хорошем качестве


    Вы не можете начинать темы
    Вы не можете отвечать на сообщения
    Вы не можете редактировать свои сообщения
    Вы не можете удалять свои сообщения
    Вы не можете голосовать в опросах
    Вы не можете прикреплять файлы к сообщениям
    Вы можете скачивать файлы