Ссылка на приватное зеркало нашего сайта всего за 1$. Внимание количество ограничено!!!

2 сезон

iTunes

1 сезон

1

iTunes

iTunes

iTunes

1 сезон

RePack

30

ИГРА 18+

pack

ВАЖНО

!!Акция!!

Alien_RageХит недели

RePack

MK11
pack

Забери бонус

RePack

jed

!!Акция!!

Alien_Rage

RePack

fifa19

RePack

Assassins Creed: Odyssey

RePack

NEED FOR SPEED™ PAYBACK

4 сезон

9 сезон

Бесстыжие 9 сезон

Все сериалы

все сериалы на PB.wtf

RePack

FAR CRY 5
  

Срочно требуется звезда / Life with Mikey (Джеймс Лэпайн) [1993, комедия, семейный, BDRip 720p] AVO pb.wtf

Срочно требуется звезда через торрент pb.wtf

Размер: 3.42 GB | Добавлен: 5 лет 6 мес. назад | Торрент скачан:13 раз
Скачать  

24-04-2015 08:17 Срочно требуется звезда Скачать торрент  


Название: Срочно требуется звезда
Оригинальное название: Life with Mikey
Год выпуска: 1993
Страна: США
Жанр: комедия, семейный
Продолжительность: 01:31:24
Перевод: авторский

Режиссёр: Джеймс Лэпайн

В ролях: Майкл Джей Фокс, Натан Лэйн, Синди Лоупер, Дэвид Крамхолц, Дэвид Хаддлстон, Кристина Видал, Виктор Гарбер, Фрэнсис Чэйни, Кэтрин Гроди, Хэзер МакРэй, Мэри Элис

Описание: Не секрет, что дети-вундеркинды часто вырастают в заурядных взрослых. Как, например, Майкл Чепмэн, ребенком бывший телезвездой, но с годами потерявший популярность. В свои теперешние 30 с хвостиком он совладелец дышащего на ладан актёрского агентства для детей. От закрытия его агентство может спасти лишь чудо, например — сверхталантливое дитя, которое могло бы стать звездой рекламных роликов. И, как ни странно, чудо происходит. В один прекрасный миг оно появляется — 10-летняя «сиротка» Энджи, карманница, врунья и потрясающая нахалка. Она совершенно очаровывает миллионы телезрителей...



Качество: BDRip 720p Сравнение с исходником
Формат: MKV
Видео кодек: H.264
Аудио кодек: AC3
Видео: MPEG-4 AVC, 4807 Кбит/с, 1280x720, 23,976 кадра/с
Аудио 1: русский, AC3, 256 kbps, 2 ch, 48 kHz [авторский, Алексей Михалёв]
Аудио 2: английский, AC3, 192 kbps, 2 ch, 48 kHz [оригинал]
frame I:988 Avg QP:19.39 size: 79097
frame P:23112 Avg QP:20.36 size: 44921
frame B:107400 Avg QP:21.94 size: 20963

Общее
Уникальный идентификатор : 227184371316786755064576858688356208514 (0xAAEA1E4CF1C62897AAC6570691F1CF82)
Полное имя : D:VideoСрочно требуется звезда.1993.BDRip.720p.mkv
Формат : Matroska
Версия формата : Version 4 / Version 2
Размер файла : 3,42 Гбайт
Продолжительность : 1 ч. 31 м.
Общий поток : 5362 Кбит/сек
Название фильма : BDRip -- STarankov
Дата кодирования : UTC 2015-04-24 06:42:41
Программа кодирования : mkvmerge v7.8.0 ('River Man') 64bit built on Mar 27 2015 16:31:37
Библиотека кодирования : libebml v1.3.1 + libmatroska v1.4.2
_STATISTICS_WRITING_APP : mkvmerge v7.8.0 ('River Man') 64bit built on Mar 27 2015 16:31:37
_STATISTICS_WRITING_DATE_UTC : 2015-04-24 06:42:41
_STATISTICS_TAGS : BPS DURATION NUMBER_OF_FRAMES NUMBER_OF_BYTES
DURATION : 01:31:24.576000000
NUMBER_OF_FRAMES : 171393
NUMBER_OF_BYTES : 131629824

Видео
Идентификатор : 1
Формат : AVC
Формат/Информация : Advanced Video Codec
Профиль формата : High@L4.1
Параметр CABAC формата : Да
Параметр ReFrames формата : 9 кадров
Идентификатор кодека : V_MPEG4/ISO/AVC
Продолжительность : 1 ч. 31 м.
Битрейт : 4807 Кбит/сек
Ширина : 1280 пикселей
Высота : 720 пикселей
Соотношение сторон : 16:9
Режим частоты кадров : Постоянный
Частота кадров : 23,976 кадра/сек
Цветовое пространство : YUV
Субдискретизация насыщенности : 4:2:0
Битовая глубина : 8 бит
Тип развёртки : Прогрессивная
Бит/(Пиксели*Кадры) : 0.218
Размер потока : 3,07 Гбайт (90%)
Библиотека кодирования : x264 core 146 r2538 121396c
Настройки программы : cabac=1 / ref=9 / deblock=1:-1:-1 / analyse=0x3:0x113 / me=umh / subme=10 / psy=1 / psy_rd=1.00:0.15 / mixed_ref=1 / me_range=32 / chroma_me=1 / trellis=2 / 8x8dct=1 / cqm=0 / deadzone=21,11 / fast_pskip=1 / chroma_qp_offset=-3 / threads=6 / lookahead_threads=1 / sliced_threads=0 / nr=0 / decimate=1 / interlaced=0 / bluray_compat=0 / constrained_intra=0 / bframes=10 / b_pyramid=2 / b_adapt=2 / b_bias=0 / direct=1 / weightb=1 / open_gop=0 / weightp=2 / keyint=230 / keyint_min=23 / scenecut=40 / intra_refresh=0 / rc_lookahead=40 / rc=crf / mbtree=0 / crf=19.7 / qcomp=0.60 / qpmin=0 / qpmax=69 / qpstep=4 / vbv_maxrate=40000 / vbv_bufsize=50000 / crf_max=0.0 / nal_hrd=none / filler=0 / ip_ratio=1.40 / pb_ratio=1.30 / aq=1:1.00
Язык : English
Default : Да
Forced : Нет
DURATION : 01:31:24.646000000
NUMBER_OF_FRAMES : 131500
NUMBER_OF_BYTES : 3367792518
_STATISTICS_WRITING_APP : mkvmerge v7.8.0 ('River Man') 64bit built on Mar 27 2015 16:31:37
_STATISTICS_WRITING_DATE_UTC : 2015-04-24 06:42:41
_STATISTICS_TAGS : BPS DURATION NUMBER_OF_FRAMES NUMBER_OF_BYTES

Аудио #1
Идентификатор : 2
Формат : AC-3
Формат/Информация : Audio Coding 3
Профиль формата : Dolby Digital
Расширение режима : CM (complete main)
Параметр Endianness формата : Big
Идентификатор кодека : A_AC3
Продолжительность : 1 ч. 31 м.
Вид битрейта : Постоянный
Битрейт : 256 Кбит/сек
Каналы : 2 канала
Расположение каналов : Front: L R
Частота : 48,0 КГц
Битовая глубина : 16 бит
Метод сжатия : С потерями
Размер потока : 167 Мбайт (5%)
Заголовок : AVO (Алексей Михалёв)
Язык : Russian
Default : Да
Forced : Нет

Аудио #2
Идентификатор : 3
Формат : AC-3
Формат/Информация : Audio Coding 3
Расширение режима : CM (complete main)
Параметр Endianness формата : Big
Идентификатор кодека : A_AC3
Продолжительность : 1 ч. 31 м.
Вид битрейта : Постоянный
Битрейт : 192 Кбит/сек
Каналы : 2 канала
Расположение каналов : Front: L R
Частота : 48,0 КГц
Битовая глубина : 16 бит
Метод сжатия : С потерями
Размер потока : 126 Мбайт (4%)
Заголовок : Original
Язык : English
Default : Нет
Forced : Нет
pb.wtf



Скачать Срочно требуется звезда через торрент http://i48.fastpic.ru/big/2015/0423/9d/64f8861ac34285e7c804d2261b88769d.jpg Скачать фильм Срочно требуется звезда через торрент бесплантно в хорошем качестве Описание: Не секрет, что дети-вундеркинды часто вырастают в заурядных взрослых. Как, например, Майкл Чепмэн, ребенком бывший телезвездой, ... 7 10 3
Торрент: Зарегистрирован [2015-04-24 08:17] · скачан: 13 раз
Статус: √ проверено
Размер: 3.42 GB
Как cкачать? Как скачать Срочно требуется звезда через торрент | qTorrent

% Раздел Тема Автор DL S | L
Фильмы [HD 720p, 1080p] (Хороший звук DUB, MVO) [ 8.07 GB ] Срочно требуется звезда / Life with Mikey [1993 BDRip 1080p] AVO msltel Скачать
1 | 0
Фильмы до 2000 г. [ 2.1 GB ] Срочно требуется звезда / Life with Mikey [1993 BDRip AVC] AVO msltel Скачать
1 | 0

28-11-2019 20:33  

Отключить всю рекламу на сайте

    Дорогой пользователь! Огромная просьба, поблагодарите релизера, оцените раздачу и оставьте свои комментарий, если Вы скачали Срочно требуется звезда через торрент бесплатно! Внесите свою лепту в развитие PiratBit!
    Комментировать посты могут только пользователи прошедшие не сложную регистрацию
    Показать сообщения:    

    Срочно требуется звезда через торрент
    Скачать бесплатно Срочно требуется звезда
    Срочно требуется звезда скачать торрент
    Срочно требуется звезда смотреть онлайн
    Cкачать фильм Срочно требуется звезда бесплатно
    Срочно требуется звезда скачать торрент в хорошем качестве
    Срочно требуется звезда смотреть онлайн бесплатно в хорошем качестве


    Вы не можете начинать темы
    Вы не можете отвечать на сообщения
    Вы не можете редактировать свои сообщения
    Вы не можете удалять свои сообщения
    Вы не можете голосовать в опросах
    Вы не можете прикреплять файлы к сообщениям
    Вы можете скачивать файлы