Ссылка на приватное зеркало всего за 1$. Внимание количество ограничено!!!

iTunes

iTunes

iTunes

1

iTunes

iTunes

iTunes

iTunes

iTunes

30
pack

Новость дня

ВАЖНО

!!Акция!!

Alien_RageХит недели

RePack

Resident Evil 21

ИГРА 18+

pack

RePack

jed

!!Акция!!

Alien_Rage

RePack

fifa19

RePack

Assassins Creed: Odyssey

RePack

NEED FOR SPEED™ PAYBACK

4 сезон

9 сезон

Бесстыжие 9 сезон

Все сериалы

все сериалы на PB.wtf

RePack

FAR CRY 5
  

Женщины против мужчин (Таир Мамедов) [2015, Россия, комедия, WEBRip) pb.wtf

Женщины против мужчин через торрент pb.wtf

Размер: 1.37 GB | Добавлен: 5 лет 1 мес. назад | Торрент скачан:1374 раза
Скачать  

24-04-2015 10:42 Женщины против мужчин Скачать торрент  

Женщины против мужчин


  • Год выпуска: 2015
  • Страна: Россия
  • Жанр: комедия
  • Продолжительность: 01:20:45
  • Перевод: Не требуется

  • Режиссер: Таир Мамедов
  • В ролях:

    Роман Юнусов, Александр Головин, Денис Косяков, Мария Кравченко, Настасья Самбурская, Наталья Рудова, Таир Мамедов, Олег Верещагин, Карен Манташян, Александр Шаляпин, Сергей Жуков, Сергей Нежданов

  • Описание:
    Школьная любовь трех замечательных пар заканчивается тремя прекрасными свадьбами и сумасшедшим свадебным путешествием на экзотическую и горячую Кубу. Но первый же день долгожданного медового месяца окончился гигантской ссорой, переходящей в вечную войну мужчин против женщин. А на войне, как и в любви, правил нет! Пираньи в бассейн? Запросто! Пожар в номере? Не вопрос! Флирт на глазах у любимого мужа? Однозначно, да! И все это, конечно же, во имя любви!
  • Рейтинг:



  • Качество: WEBRip
  • Формат: :AVI
  • Видео кодек: XviD
  • Аудио кодек: AC3
  • Видео: 720x400 (16:9), 2023 kbps, 25 fps, 0,281 bpp
  • Аудио: 2.0 / 44 kHz / 384 kbps
  • Релиз от: GEKADOL

    Код:

    General
    Complete name                            : D:\Фильмы\Jenschiny.protiv.mujchin.2015.O.WEBRip.1400MB.avi
    Format                                   : AVI
    Format/Info                              : Audio Video Interleave
    File size                                : 1.37 GiB
    Duration                                 : 1h 20mn
    Overall bit rate                         : 2 422 Kbps
    Writing application                      : VirtualDubMod 1.5.10.3 | www.virtualdub-fr.org || (build 2550/release)
    Writing library                          : VirtualDubMod build 2550/release

    Video
    ID                                       : 0
    Format                                   : MPEG-4 Visual
    Codec ID                                 : XVID
    Codec ID/Hint                            : XviD
    Duration                                 : 1h 20mn
    Source duration                          : 39mn 25s
    Bit rate                                 : 2 024 Kbps
    Width                                    : 720 pixels
    Height                                   : 400 pixels
    Display aspect ratio                     : 16:9
    Frame rate                               : 25.000 fps
    Color space                              : YUV
    Chroma subsampling                       : 4:2:0
    Compression mode                         : Lossy
    Bits/(Pixel*Frame)                       : 0.281
    Stream size                              : 571 MiB (41%)

    Audio
    ID                                       : 1
    Format                                   : AC-3
    Format/Info                              : Audio Coding 3
    Codec ID                                 : 2000
    Duration                                 : 1h 20mn
    Source duration                          : 39mn 25s
    Bit rate mode                            : Constant
    Bit rate                                 : 384 Kbps
    Channel(s)                               : 2 channels
    Sampling rate                            : 44.1 KHz
    Compression mode                         : Lossy
    Stream size                              : 108 MiB (8%)
    Alignment                                : Aligned on interleaves
    Interleave, duration                     : 40 ms (1.00 video frame)
    Interleave, preload duration             : 500 ms


    Скриншоты:


    pb.wtf



  • Скачать Женщины против мужчин через торрент http://i58.fastpic.ru/big/2015/0424/97/192abc4c5764dd1564f9e3e0373fd897.jpg Скачать фильм Женщины против мужчин через торрент бесплантно в хорошем качестве Описание: Школьная любовь трех замечательных пар заканчивается тремя прекрасными свадьбами и сумасшедшим свадебным путешествием на ... 9.1 10 30
    Info! Золотая раздача, скачанное не засчитывается.
    Торрент: Зарегистрирован [2015-04-24 10:42] · скачан: 1 374 раз
    Статус: √ проверено
    Размер: 1.37 GB
    Как cкачать? Как скачать Женщины против мужчин через торрент | qTorrent

    % Раздел Тема Автор DL S | L
    Наши новые фильмы 2018-2019 [ 1.37 GB ] Женщины против мужчин: Крымские каникулы [2018 WEB-DLRip] bober100 Скачать
    9 | 0
    T Наши новые фильмы 2018-2019 [ 1.46 GB ] Женщины против мужчин: Крымские каникулы [2018 WEB-DLRip-AVC] bober100 Скачать
    2 | 0
    T Наши фильмы (HD, WEB-DL 720p, 1080p) [ 2.33 GB ] Женщины против мужчин: Крымские каникулы [2018 WEB-DL 720p] bober100 Скачать
    2 | 0
    T Наши фильмы (HD, WEB-DL 720p, 1080p) [ 2.71 GB ] Женщины против мужчин: Крымские каникулы [2018 WEB-DL 1080p] bober100 Скачать
    1 | 0
    Наши новые фильмы 2015 [ 1.08 GB ] Женщины против мужчин [2015 WEB-DLRip-AVC] Ворон Скачать
    1 | 0
    Наши новые фильмы 2015 [ 1.46 GB ] Женщины против мужчин [2015 WEB-DLRip] coc900 Скачать
    1 | 1
    Наши фильмы (HD, WEB-DL 720p, 1080p) [ 2.47 GB ] Женщины против мужчин [2015 Россия WEB-DL 1080p) GEKADOL Скачать
    1 | 0

    28-11-2019 20:33  

    Отключить всю рекламу на сайте

    24-04-2015 21:04 Женщины против мужчин Скачать торрент  

    Не плохо,не хорошо,любители комеди ругать не станут,остальных будет рвать.Фильм с массой пошлых шуток,на любителя,я получил удовольствие от прослушивания песни руки верх исполняющееся кубинцами в конце фильма.pb.wtf



      Дорогой пользователь! Огромная просьба, поблагодарите релизера, оцените раздачу и оставьте свои комментарий, если Вы скачали Женщины против мужчин через торрент бесплатно! Внесите свою лепту в развитие PiratBit!
      Комментировать посты могут только пользователи прошедшие не сложную регистрацию
      Показать сообщения:    

      Женщины против мужчин через торрент
      Скачать бесплатно Женщины против мужчин
      Женщины против мужчин скачать торрент
      Женщины против мужчин смотреть онлайн
      Cкачать фильм Женщины против мужчин бесплатно
      Женщины против мужчин скачать торрент в хорошем качестве
      Женщины против мужчин смотреть онлайн бесплатно в хорошем качестве


      Вы не можете начинать темы
      Вы не можете отвечать на сообщения
      Вы не можете редактировать свои сообщения
      Вы не можете удалять свои сообщения
      Вы не можете голосовать в опросах
      Вы не можете прикреплять файлы к сообщениям
      Вы можете скачивать файлы