1 сезон

1 сезон

iTunes

1

КиноПоиск HD

Кинопоиск HD

iTunes

13

1 сезон

RePack

30

Ultimate

ВАЖНО

ИГРА 18+

pack

RePack

MK11
pack

Легкие деньги

RePack

jed

RePack

fifa19

RePack

RDR2

RePack

NEED FOR SPEED™ PAYBACK

4 сезон

9 сезон

Бесстыжие 9 сезон

Все сериалы

все сериалы на PB.wtf

RePack

FAR CRY 5
  
Magnet ссылка

Барабанная дробь / Drumline (Чарльз Стоун III) [2002, драма, мелодрама, комедия, музыка, BDRip AVC] MVO pb.wtf

Барабанная дробь через торрент pb.wtf

Размер: 2.95 GB | Добавлен: 5 лет 11 мес. назад | Торрент скачан:92 раза
Скачать  

24-04-2015 13:23 Барабанная дробь Скачать торрент  


Название: Барабанная дробь
Оригинальное название: Drumline
Год выпуска: 2002
Страна: США
Жанр: драма, мелодрама, комедия, музыка
Продолжительность: 02:02:23
Перевод: профессиональный многоголосый

Режиссёр: Чарльз Стоун III

В ролях: Ник Кэннон, Зои Салдана, Орландо Джонс, Леонард Робертс, ДжиКью, Джейсон Уивер, Эрл Пуатье, Кендес Кэри, Шэй Раундтри, Мигель А. Гаетан, Дж. Энтони Браун, Афемо Омилами, Анджела Э. Гиббс, Тайриз Барнетт, Брэндон Хирш, Омар Дж. Дорси, Аль Уиггинс, Николас Б. Томас, Пети Пабло, Стюарт Скотт, Кортни Джеймс Стюарт, Фон Култер, Джейсон Симс-Прюитт, Джордж А. Питерс II, Гари Йэтс

Описание: Как известно, у чёрных парней из бедного Гарлема не слишком много путей выбиться в люди: через шоу-бизнес, спорт или криминал. В отличие от своих сверстников, Девон мечтает стать не гангстером, не актёром и не баскетболистом. Девон грезит о карьере барабанщика — уж больно ему нравится наяривать палочками по кожаной поверхности. Его упорные попытки самоувердиться на улицах не остаются без внимания: парня замечает хозяин оркестра и приглашает постучать по барабану в одном университете. Карьера начинается...



Качество: BDRip-AVC Сравнение с исходником
Формат: MKV
Видео кодек: H.264
Аудио кодек: AC3
Видео: MPEG-4 AVC, 2482 Кбит/с, 1024x436, 23,976 кадра/с
Аудио 1: русский, AC3, 448 kbps, 6 ch, 48 kHz [профессиональный многоголосый]
Аудио 2: английский, AC3, 448 kbps, 6 ch, 48 kHz [оригинал]
Субтитры: английские (для слабослышащих)
Премия канала «MTV», 2003 год
Номинации (2):
Мужской прорыв года (Ник Кэннон)
Лучший поцелуй (Ник Кэннон, Зои Салдана)
frame I:1877 Avg QP:22.92 size: 59360
frame P:35319 Avg QP:24.31 size: 26124
frame B:138875 Avg QP:26.35 size: 9398

Общее
Уникальный идентификатор : 178353149344054487419171296400291095291 (0x862D912D72F89DF098E253D993B362FB)
Полное имя : D:VideoБарабанная дробь.2002.BDRip.AVC.mkv
Формат : Matroska
Версия формата : Version 4 / Version 2
Размер файла : 2,95 Гбайт
Продолжительность : 2 ч. 2 м.
Общий поток : 3446 Кбит/сек
Название фильма : BDRip -- STarankov
Дата кодирования : UTC 2015-04-24 10:48:49
Программа кодирования : mkvmerge v7.8.0 ('River Man') 64bit built on Mar 27 2015 16:31:37
Библиотека кодирования : libebml v1.3.1 + libmatroska v1.4.2
DURATION : 02:01:52.596000000
NUMBER_OF_FRAMES : 1510
NUMBER_OF_BYTES : 58130
_STATISTICS_WRITING_APP : mkvmerge v7.8.0 ('River Man') 64bit built on Mar 27 2015 16:31:37
_STATISTICS_WRITING_DATE_UTC : 2015-04-24 10:48:49
_STATISTICS_TAGS : BPS DURATION NUMBER_OF_FRAMES NUMBER_OF_BYTES

Видео
Идентификатор : 1
Формат : AVC
Формат/Информация : Advanced Video Codec
Профиль формата : High@L4.1
Параметр CABAC формата : Да
Параметр ReFrames формата : 9 кадров
Идентификатор кодека : V_MPEG4/ISO/AVC
Продолжительность : 2 ч. 2 м.
Битрейт : 2482 Кбит/сек
Ширина : 1024 пикселя
Высота : 436 пикселей
Соотношение сторон : 2,35:1
Режим частоты кадров : Постоянный
Частота кадров : 23,976 кадра/сек
Цветовое пространство : YUV
Субдискретизация насыщенности : 4:2:0
Битовая глубина : 8 бит
Тип развёртки : Прогрессивная
Бит/(Пиксели*Кадры) : 0.232
Размер потока : 2,12 Гбайт (72%)
Библиотека кодирования : x264 core 146 r2538 121396c
Настройки программы : cabac=1 / ref=9 / deblock=1:-1:-1 / analyse=0x3:0x113 / me=umh / subme=10 / psy=1 / psy_rd=1.00:0.15 / mixed_ref=1 / me_range=32 / chroma_me=1 / trellis=2 / 8x8dct=1 / cqm=0 / deadzone=21,11 / fast_pskip=1 / chroma_qp_offset=-3 / threads=6 / lookahead_threads=1 / sliced_threads=0 / nr=0 / decimate=1 / interlaced=0 / bluray_compat=0 / constrained_intra=0 / bframes=11 / b_pyramid=2 / b_adapt=2 / b_bias=0 / direct=1 / weightb=1 / open_gop=0 / weightp=2 / keyint=230 / keyint_min=23 / scenecut=40 / intra_refresh=0 / rc_lookahead=40 / rc=crf / mbtree=0 / crf=21.0 / qcomp=0.60 / qpmin=0 / qpmax=69 / qpstep=4 / vbv_maxrate=40000 / vbv_bufsize=50000 / crf_max=0.0 / nal_hrd=none / filler=0 / ip_ratio=1.40 / pb_ratio=1.30 / aq=1:1.00
Язык : English
Default : Да
Forced : Нет
DURATION : 02:02:23.628000000
NUMBER_OF_FRAMES : 176071
NUMBER_OF_BYTES : 2339259857
_STATISTICS_WRITING_APP : mkvmerge v7.8.0 ('River Man') 64bit built on Mar 27 2015 16:31:37
_STATISTICS_WRITING_DATE_UTC : 2015-04-24 10:48:49
_STATISTICS_TAGS : BPS DURATION NUMBER_OF_FRAMES NUMBER_OF_BYTES

Аудио #1
Идентификатор : 2
Формат : AC-3
Формат/Информация : Audio Coding 3
Расширение режима : CM (complete main)
Параметр Endianness формата : Big
Идентификатор кодека : A_AC3
Продолжительность : 2 ч. 2 м.
Вид битрейта : Постоянный
Битрейт : 448 Кбит/сек
Каналы : 6 каналов
Расположение каналов : Front: L C R, Side: L R, LFE
Частота : 48,0 КГц
Битовая глубина : 16 бит
Метод сжатия : С потерями
Размер потока : 392 Мбайт (13%)
Заголовок : MVO
Язык : Russian
Default : Да
Forced : Нет

Аудио #2
Идентификатор : 3
Формат : AC-3
Формат/Информация : Audio Coding 3
Расширение режима : CM (complete main)
Параметр Endianness формата : Big
Идентификатор кодека : A_AC3
Продолжительность : 2 ч. 2 м.
Вид битрейта : Постоянный
Битрейт : 448 Кбит/сек
Каналы : 6 каналов
Расположение каналов : Front: L C R, Side: L R, LFE
Частота : 48,0 КГц
Битовая глубина : 16 бит
Метод сжатия : С потерями
Размер потока : 392 Мбайт (13%)
Заголовок : Original
Язык : English
Default : Нет
Forced : Нет

Текст
Идентификатор : 4
Формат : UTF-8
Идентификатор кодека : S_TEXT/UTF8
Идентификатор кодека/Информация : UTF-8 Plain Text
Заголовок : английские (для слабослышащих)
Язык : English
Default : Нет
Forced : Нет
pb.wtf



Скачать Барабанная дробь через торрент http://i59.fastpic.ru/big/2015/0424/f7/7332a9981a5b85956d1c9e9decd813f7.jpg Скачать фильм Барабанная дробь через торрент бесплантно в хорошем качестве Описание: Как известно, у чёрных парней из бедного Гарлема не слишком много путей выбиться в люди: через шоу-бизнес, спорт или криминал. В ... 10 10 3
Торрент: Зарегистрирован [2015-04-24 13:23] · скачан: 92 раз
Статус: √ проверено
Размер: 2.95 GB
Как cкачать? Как скачать Барабанная дробь через торрент | UTorrent

% Раздел Тема Автор DL S | L
Фильмы [HD 720p, 1080p] (Хороший звук DUB, MVO) [ 11.4 GB ] Барабанная дробь / Drumline [2002 музыка BDRip 1080p] MVO msltel Скачать
1 | 0
Фильмы [HD 720p, 1080p] (Хороший звук DUB, MVO) [ 4.46 GB ] Барабанная дробь / Drumline [2002 музыка BDRip 720p] MVO msltel Скачать
1 | 0

28-11-2019 20:33  

Отключить всю рекламу на сайте

    Дорогой пользователь! Огромная просьба, поблагодарите релизера, оцените раздачу и оставьте свои комментарий, если Вы скачали Барабанная дробь через торрент бесплатно! Внесите свою лепту в развитие PiratBit!
    Комментировать посты могут только пользователи прошедшие не сложную регистрацию
    Показать сообщения:    

    Барабанная дробь через торрент
    Скачать бесплатно Барабанная дробь
    Барабанная дробь скачать торрент
    Барабанная дробь смотреть онлайн
    Cкачать фильм Барабанная дробь бесплатно
    Барабанная дробь скачать торрент в хорошем качестве
    Барабанная дробь смотреть онлайн бесплатно в хорошем качестве


    Вы не можете начинать темы
    Вы не можете отвечать на сообщения
    Вы не можете редактировать свои сообщения
    Вы не можете удалять свои сообщения
    Вы не можете голосовать в опросах
    Вы не можете прикреплять файлы к сообщениям
    Вы можете скачивать файлы