1 сезон

1 сезон

iTunes

1

КиноПоиск HD

Кинопоиск HD

iTunes

13

1 сезон

RePack

30

Новинка

ВАЖНО

ИГРА 18+

pack

RePack

MK11
pack

Легкие деньги

RePack

jed

RePack

fifa19

RePack

RDR2

RePack

NEED FOR SPEED™ PAYBACK

4 сезон

9 сезон

Бесстыжие 9 сезон

Все сериалы

все сериалы на PB.wtf

RePack

FAR CRY 5
  
Magnet ссылка

Васаби / Wasabi (Жерар Кравчик) [2001, боевик, триллер, драма, комедия, криминал, HDRip-AVC] DUB [Лицензия] от R.G. PiratFilms pb.wtf

Васаби через торрент pb.wtf

Размер: 1.45 GB | Добавлен: 5 лет 11 мес. назад | Торрент скачан:193 раза
Скачать  

25-04-2015 00:28 Васаби Скачать торрент  

Васаби / Wasabi
«Маленький переполох в большом Токио»



Год выпуска: 2001
Страна: Франция, Япония
Жанр: боевик, триллер, драма, комедия, криминал
Длительность: 01:33:50
Перевод: Профессиональный (Дубляж) [Лицензия]

Режиссер: Жерар Кравчик

В ролях: Жан Рено, Риоко Хиросуэ, Мишель Мюллер, Ёси Оида, Кароль Буке, Кристиан Синниже, Александр Брик, Жан-Марк Монтальто, Вероник Бальм, Фабио Дзенони

Описание: Юбер Фиорентини — французский полицейский, исполняя последнюю волю когда-то им любимой японской девушки, вынужден отправиться в далекую Японию, где ему приходится встретиться со старым другом и дочерью, о существовании которой он даже не подозревал.

А так же получить наследство в 200 млн. долларов, и познакомиться с японской якудзой, охотящейся за заманчивой суммой…


|

Качество: HDRip-AVC (Rip by Phoenix)
Исходник: BDRip 1080p
Формат: MKV
Видео кодек: H.264
Аудио кодек: AC3
Видео: H.264, 1024*432, 23,976 кадр/сек, 1760 Кбит/сек, 0.166 Бит/(Пиксели*Кадры)
Аудио: AC3, 448 Кбит/сек, 6 каналов, 48,0 КГц

Код:

---[Information] [25.04.2015 11:32:12] x264 [info]: frame I:1476  Avg QP:18.73  size: 59819  PSNR Mean Y:44.53 U:48.57 V:49.20 Avg:45.52 Global:45.25
---[Information] [25.04.2015 11:32:12] x264 [info]: frame P:28981 Avg QP:21.02  size: 16339  PSNR Mean Y:42.59 U:48.08 V:48.06 Avg:43.71 Global:43.34
---[Information] [25.04.2015 11:32:12] x264 [info]: frame B:104538 Avg QP:21.98  size:  6472  PSNR Mean Y:41.82 U:47.81 V:48.04 Avg:43.02 Global:42.70
---[Information] [25.04.2015 11:32:12] x264 [info]: consecutive B-frames:  2.5%  2.5%  7.8% 15.9% 18.0% 44.7%  5.8%  1.6%  1.1%

Код:

Общее
Уникальный идентификатор                 : 172401928329820418638230914040283768515 (0x81B36753E7E00780A77391E9293BA6C3)
Полное имя                               : G:\Video\Rip by Phoenix\Wasabi Rip by Phoenix.mkv
Формат                                   : Matroska
Версия формата                           : Version 2
Размер файла                             : 1,45 Гбайт
Продолжительность                        : 1 ч. 33 м.
Общий поток                              : 2209 Кбит/сек
Дата кодирования                         : UTC 2015-04-25 10:48:49
Программа кодирования                    : mkvmerge v7.7.0 ('Six Voices') 32bit built on Feb 28 2015 23:23:00
Библиотека кодирования                   : libebml v1.3.1 + libmatroska v1.4.2
DURATION                                 : 01:33:49.856000000
NUMBER_OF_FRAMES                         : 175933
NUMBER_OF_BYTES                          : 315271936
_STATISTICS_WRITING_APP                  : mkvmerge v7.7.0 ('Six Voices') 32bit built on Feb 28 2015 23:23:00
_STATISTICS_WRITING_DATE_UTC             : 2015-04-25 10:48:49
_STATISTICS_TAGS                         : BPS DURATION NUMBER_OF_FRAMES NUMBER_OF_BYTES

Видео
Идентификатор                            : 1
Формат                                   : AVC
Формат/Информация                        : Advanced Video Codec
Профиль формата                          : High@L4.1
Параметр CABAC формата                   : Да
Параметр ReFrames формата                : 10 кадров
Идентификатор кодека                     : V_MPEG4/ISO/AVC
Продолжительность                        : 1 ч. 33 м.
Битрейт                                  : 1760 Кбит/сек
Ширина                                   : 1024 пикселя
Высота                                   : 432 пикселя
Соотношение сторон                       : 2,40:1
Режим частоты кадров                     : Постоянный
Частота кадров                           : 23,976 кадра/сек
Цветовое пространство                    : YUV
Субдискретизация насыщенности            : 4:2:0
Битовая глубина                          : 8 бит
Тип развёртки                            : Прогрессивная
Бит/(Пиксели*Кадры)                      : 0.166
Размер потока                            : 1,13 Гбайт (78%)
Заголовок                                : Rip by Phoenix
Библиотека кодирования                   : x264 core 146 r2538 121396c
Настройки программы                      : cabac=1 / ref=10 / deblock=1:-3:-3 / analyse=0x3:0x113 / me=umh / subme=9 / psy=1 / psy_rd=1.00:0.00 / mixed_ref=1 / me_range=32 / chroma_me=1 / trellis=2 / 8x8dct=1 / cqm=0 / deadzone=21,11 / fast_pskip=1 / chroma_qp_offset=-2 / threads=6 / lookahead_threads=1 / sliced_threads=0 / nr=0 / decimate=1 / interlaced=0 / bluray_compat=0 / constrained_intra=0 / bframes=8 / b_pyramid=2 / b_adapt=2 / b_bias=0 / direct=1 / weightb=1 / open_gop=0 / weightp=2 / keyint=240 / keyint_min=23 / scenecut=40 / intra_refresh=0 / rc_lookahead=40 / rc=2pass / mbtree=1 / bitrate=1760 / ratetol=1.0 / qcomp=0.75 / qpmin=0 / qpmax=69 / qpstep=4 / cplxblur=20.0 / qblur=0.5 / vbv_maxrate=62500 / vbv_bufsize=78125 / nal_hrd=none / filler=0 / ip_ratio=1.40 / aq=1:1.00
Язык                                     : English
Default                                  : Да
Forced                                   : Нет
DURATION                                 : 01:33:50.417000000
NUMBER_OF_FRAMES                         : 134995
NUMBER_OF_BYTES                          : 1238384574
_STATISTICS_WRITING_APP                  : mkvmerge v7.7.0 ('Six Voices') 32bit built on Feb 28 2015 23:23:00
_STATISTICS_WRITING_DATE_UTC             : 2015-04-25 10:48:49
_STATISTICS_TAGS                         : BPS DURATION NUMBER_OF_FRAMES NUMBER_OF_BYTES

Аудио
Идентификатор                            : 2
Формат                                   : AC-3
Формат/Информация                        : Audio Coding 3
Расширение режима                        : CM (complete main)
Параметр Endianness формата              : Big
Идентификатор кодека                     : A_AC3
Продолжительность                        : 1 ч. 33 м.
Вид битрейта                             : Постоянный
Битрейт                                  : 448 Кбит/сек
Каналы                                   : 6 каналов
Расположение каналов                     : Front: L C R, Side: L R, LFE
Частота                                  : 48,0 КГц
Битовая глубина                          : 16 бит
Метод сжатия                             : С потерями
Размер потока                            : 301 Мбайт (20%)
Заголовок                                : Дубляж
Язык                                     : Russian
Default                                  : Да
Forced                                   : Нет

pb.wtf



Скачать Васаби через торрент http://i48.fastpic.ru/big/2015/0425/12/515a61f10a9842f39f5c51b2a4efa112.png Скачать фильм Васаби через торрент бесплантно в хорошем качестве Описание: Юбер Фиорентини — французский полицейский, исполняя последнюю волю когда-то им любимой японской девушки, вынужден отправиться в ... 9.9 10 24
Info! Золотая раздача, скачанное не засчитывается.
Торрент: Зарегистрирован [2015-04-25 12:07] · скачан: 193 раз
Статус: √ проверено
Размер: 1.45 GB
Как cкачать? Как скачать Васаби через торрент | UTorrent

28-11-2019 20:33  

Отключить всю рекламу на сайте

25-04-2015 12:44 Васаби Скачать торрент  

Отличнейшей фильм!pb.wtf



25-04-2015 14:52 Васаби Скачать торрент  

Новьё)))pb.wtf



26-04-2015 12:12 Васаби Скачать торрент  

Прочитал:
Режиссер: Жерар Красавчикpb.wtf



    Дорогой пользователь! Огромная просьба, поблагодарите релизера, оцените раздачу и оставьте свои комментарий, если Вы скачали Васаби через торрент бесплатно! Внесите свою лепту в развитие PiratBit!
    Комментировать посты могут только пользователи прошедшие не сложную регистрацию
    Показать сообщения:    

    Васаби через торрент
    Скачать бесплатно Васаби
    Васаби скачать торрент
    Васаби смотреть онлайн
    Cкачать фильм Васаби бесплатно
    Васаби скачать торрент в хорошем качестве
    Васаби смотреть онлайн бесплатно в хорошем качестве


    Вы не можете начинать темы
    Вы не можете отвечать на сообщения
    Вы не можете редактировать свои сообщения
    Вы не можете удалять свои сообщения
    Вы не можете голосовать в опросах
    Вы не можете прикреплять файлы к сообщениям
    Вы можете скачивать файлы