Ссылка на приватное зеркало нашего сайта всего за 1$. Внимание количество ограничено!!!

2 сезон

iTunes

1 сезон

1

2 сезон

2 сезон

iTunes

1 сезон

RePack

30

Ultimate

ВАЖНО

ИГРА 18+

pack

RePack

MK11
pack

Забери бонус

RePack

jed

!!Акция!!

Alien_Rage

RePack

fifa19

RePack

Assassins Creed: Odyssey

RePack

NEED FOR SPEED™ PAYBACK

4 сезон

9 сезон

Бесстыжие 9 сезон

Все сериалы

все сериалы на PB.wtf

RePack

FAR CRY 5
  

Чистота / Spotless / Сезон: 1 / Серии 1-10 из 10 (Паскаль Шомель / Pascal Chaumeil, Колин Тиг / Colin Teague, Фил Джон / Philip John) [2015, Франция, криминал, HDRip, MVO] [AlexFilm] pb.wtf

Чистота через торрент pb.wtf

Размер: 6.33 GB | Добавлен: 5 лет 5 мес. назад | Торрент скачан:301 раз
Скачать  

25-04-2015 03:08 Чистота Скачать торрент  

Чистота / Spotless
«В некоторых семьях , смерть в крови»


  • Год выпуска: 2015
  • Страна: Франция
  • Жанр: криминал
  • Продолжительность: 00:56:05 (Серия)
  • Перевод: Профессиональный многоголосый закадровый [AlexFilm]

  • Режиссер: Паскаль Шомель / Pascal Chaumeil, Колин Тиг / Colin Teague, Фил Джон / Philip John
  • В ролях:

    Дени Меноше (Martin Bastiere), Миранда Рэйсон (Julie Greer-Bastiere), Марк-Андре Гронден (Jean Bastiere), Сэм Маккэй (Denny), Толга Сафер (Hakan), Брендан Койл (Nelson Clay), Шэн-Чиэнь Цай (Jimmy Welbeck), Raj Awasti (Hotel Bar Patron), Рэйчел О’Мира (Kingsgate Head), Шэйн Сэлтер (Forensic Detective), Bailey Hayden (Actor), Сара Нилс (DCI Squire)

  • Описание:
    "Чистота" - история чистильщика мест преступлений Жана, чья тихая жизнь кардинально меняется, когда к нему в дом заявляется его брат Мартин, который втягивает его в смертельно опасный криминальный мир.
  • Рейтинг:



  • Качество: HDRip
  • Формат: :AVI
  • Видео кодек: XviD
  • Аудио кодек: MP3
  • Видео: 720x400 (16:9), 1349 kbps, 25 fps, 0,187 bpp
  • Аудио №1: Русский 2.0 / 48 kHz / 128 kbps
  • Аудио №2: Английский 2.0 / 48 kHz / 128 kbps
  • Релиз от: GEKADOL

    Код:

    Внимание! Раздача ведётся путём добавления новых серий; при каждом добавлении создаётся новый торрент. Чтобы начать докачку новой серии, пользователям необходимо сделать следующее:
    (1) остановить скачивание,
    (2) удалить старый торрент у себя из клиента (старые серии удалять не надо),
    (3) скачать новый торрент и запустить его у себя в клиенте вместо старого, при этом указать клиенту путь в старую папку куда и должно происходить скачивание новых серий.
    Ваш клиент при этом должен произвести хеширование (проверку) старой папки (если не производит сам - помогите ему сделать это), и будет докачивать только те серии которых у вас ещё нет. Старые серии при этом не удаляются, а продолжают раздаваться!
    Eсли вы уже удалили старые серии, то предотвратить повторную закачку старых серий можно, отжав галочку в соответствующих местах при запуске нового торрента. По возможности, желательно не удалять старые серии как можно дольше чтобы релизёр не столько продолжал раздавать старые серии, а смог сконцентрироваться на новых.


    Код:

    General
    Complete name                            : F:\Spotless  - Season 1 (AlexFilm) HDTVRip\Spotless.s01e01.HDTVRip.Rus.Eng.AlexFilm.avi
    Format                                   : AVI
    Format/Info                              : Audio Video Interleave
    File size                                : 650 MiB
    Duration                                 : 56mn 5s
    Overall bit rate                         : 1 620 Kbps
    Movie name                               : Spotless 1x01 @ AlexFilm
    Writing application                      : VirtualDubMod 1.5.10.2 (build 2540/release)
    Writing library                          : VirtualDubMod build 2540/release

    Video
    ID                                       : 0
    Format                                   : MPEG-4 Visual
    Format profile                           : Advanced Simple@L5
    Format settings, BVOP                    : No
    Format settings, QPel                    : No
    Format settings, GMC                     : No warppoints
    Format settings, Matrix                  : Default (H.263)
    Codec ID                                 : XVID
    Codec ID/Hint                            : XviD
    Duration                                 : 56mn 5s
    Bit rate                                 : 1 350 Kbps
    Width                                    : 720 pixels
    Height                                   : 400 pixels
    Display aspect ratio                     : 16:9
    Frame rate                               : 25.000 fps
    Color space                              : YUV
    Chroma subsampling                       : 4:2:0
    Bit depth                                : 8 bits
    Scan type                                : Progressive
    Compression mode                         : Lossy
    Bits/(Pixel*Frame)                       : 0.187
    Stream size                              : 542 MiB (83%)
    Writing library                          : XviD 73

    Audio #1
    ID                                       : 1
    Format                                   : MPEG Audio
    Format version                           : Version 1
    Format profile                           : Layer 3
    Mode                                     : Joint stereo
    Mode extension                           : MS Stereo
    Codec ID                                 : 55
    Codec ID/Hint                            : MP3
    Duration                                 : 56mn 5s
    Bit rate mode                            : Constant
    Bit rate                                 : 128 Kbps
    Channel(s)                               : 2 channels
    Sampling rate                            : 48.0 KHz
    Compression mode                         : Lossy
    Stream size                              : 51.4 MiB (8%)
    Alignment                                : Aligned on interleaves
    Interleave, duration                     : 40 ms (1.00 video frame)
    Interleave, preload duration             : 504 ms
    Title                                    : Russian (AlexFilm)
    Writing library                          : LAME3.99r
    Encoding settings                        : -m j -V 4 -q 3 -lowpass 18 -b 128

    Audio #2
    ID                                       : 2
    Format                                   : MPEG Audio
    Format version                           : Version 1
    Format profile                           : Layer 3
    Mode                                     : Joint stereo
    Mode extension                           : MS Stereo
    Codec ID                                 : 55
    Codec ID/Hint                            : MP3
    Duration                                 : 56mn 5s
    Bit rate mode                            : Constant
    Bit rate                                 : 128 Kbps
    Channel(s)                               : 2 channels
    Sampling rate                            : 48.0 KHz
    Compression mode                         : Lossy
    Stream size                              : 51.4 MiB (8%)
    Alignment                                : Aligned on interleaves
    Interleave, duration                     : 40 ms (1.00 video frame)
    Interleave, preload duration             : 504 ms
    Title                                    : English
    Writing library                          : LAME3.90.3




    Внимание! В сериале присутствуют сцены с обнаженной натурой!
    Скриншоты:
    скриншот   скриншот   скриншот   скриншот   скриншот  
    скриншот  

    Раздача ведётся путём добавления новых серий. Добавлена 10 серия (29.06.2015).Просьба перекачать торрент файл.

    pb.wtf



  • Скачать Чистота через торрент http://i59.fastpic.ru/big/2015/0425/e0/eb6b0f1517ebda6ed84938978ae1dfe0.jpg Скачать фильм Чистота через торрент бесплантно в хорошем качестве Описание: "Чистота" - история чистильщика мест преступлений Жана, чья тихая жизнь кардинально меняется, когда к нему в дом заявляется его ... 9.4 10 20
    Info! Золотая раздача, скачанное не засчитывается.
    Торрент: Зарегистрирован [2015-06-29 01:58] · скачан: 301 раз
    Статус: √ проверено
    Размер: 6.33 GB
    Как cкачать? Как скачать Чистота через торрент | qTorrent

    % Раздел Тема Автор DL S | L
    Зарубежные сериалы [ 22.43 GB ] Чистота / Spotless / Сезон: 1 / Серии 1-10 из 10 [2015 BDRip 720p MVO] [AlexFilm] GEKADOL Скачать
    1 | 0
    Зарубежные сериалы [ 37.15 GB ] Чистота / Spotless / Сезон: 1 / Серии 1-10 из 10 [2015 BDRip 1080p MVO] [AlexFilm] GEKADOL Скачать
    1 | 0


    Последний раз редактировалось: GEKADOL (2015-06-29 01:58), всего редактировалось 11 раз(а)

    28-11-2019 20:33  

    Отключить всю рекламу на сайте

    25-04-2015 03:15 Чистота Скачать торрент  

    Если нужно качество лучше, пишите! pb.wtf



    25-04-2015 19:48 Чистота Скачать торрент  

    пилот вроде ничё.смотрим дальше.
    если качество будет пошире - не против.pb.wtf



    13-05-2015 17:29 Чистота Скачать торрент  

    дайте хорошее качаство плиииз!!! сериал отличный!!!pb.wtf



    21-05-2015 01:54 Чистота Скачать торрент  

    Alexander198003 писал(а):

    дайте хорошее качаство плиииз!!! сериал отличный!!!

    Хорошо! Сегодня сделаю 1080! pb.wtf



    21-05-2015 07:22 Чистота Скачать торрент  

    Хороший сериал.pb.wtf



    28-05-2015 04:22 Чистота Скачать торрент  

    720p пожалуйстаpb.wtf



    28-05-2015 09:20 Чистота Скачать торрент  

    Leha_vasiliev писал(а):

    720p пожалуйста

    Нет такого только 720*400 и 1920*1080!pb.wtf



    28-05-2015 14:28 Чистота Скачать торрент  

    720*400 мало, а 1920*1080 ноут не тянет. почему нет 720p?pb.wtf



    12-06-2015 03:40 Чистота Скачать торрент  

    Leha_vasiliev писал(а):

    720*400 мало, а 1920*1080 ноут не тянет. почему нет 720p?

    Вопрос к "Алексам") pb.wtf



    30-06-2015 13:27 Чистота Скачать торрент  

    отличный сериал, спасибо Gekadolpb.wtf



    01-05-2020 20:58 Чистота Скачать торрент  

    Сериал с рекламой. Ищите такой же от Лоста, но без рекламы.pb.wtf



      Дорогой пользователь! Огромная просьба, поблагодарите релизера, оцените раздачу и оставьте свои комментарий, если Вы скачали Чистота через торрент бесплатно! Внесите свою лепту в развитие PiratBit!
      Комментировать посты могут только пользователи прошедшие не сложную регистрацию
      Показать сообщения:    

      Чистота через торрент
      Скачать бесплатно Чистота
      Чистота скачать торрент
      Чистота смотреть онлайн
      Cкачать фильм Чистота бесплатно
      Чистота скачать торрент в хорошем качестве
      Чистота смотреть онлайн бесплатно в хорошем качестве


      Вы не можете начинать темы
      Вы не можете отвечать на сообщения
      Вы не можете редактировать свои сообщения
      Вы не можете удалять свои сообщения
      Вы не можете голосовать в опросах
      Вы не можете прикреплять файлы к сообщениям
      Вы можете скачивать файлы