2 сезон

iTunes

MVO

1

2 сезон

iTunes

iTunes

1 сезон

RePack

30

Ultimate

ВАЖНО

ИГРА 18+

pack

RePack

MK11
pack

Легкие деньги

RePack

jed

RePack

fifa19

RePack

RDR2

RePack

NEED FOR SPEED™ PAYBACK

4 сезон

9 сезон

Бесстыжие 9 сезон

Все сериалы

все сериалы на PB.wtf

RePack

FAR CRY 5

Anonymous, добрый вечер, мы не успеваем собрать деньги на оплату серверов за декабрь и январь, помогите нам пожалуйста в это трудное время. В качестве благодарности мы отключим Вам всю рекламу на сайте (укажите свой ник в строку Ваше имя)!

×
  
Magnet ссылка

Восторг Палуза / Rapture-Palooza (Пол Миддледитч) [2013 г., фэнтези, комедия, HDRip, Профессиональный многоголосый ] pb.wtf

Восторг Палуза через торрент pb.wtf

Размер: 1.46 GB | Добавлен: 5 лет 8 мес. назад | Торрент скачан:294 раза
Скачать  

25-04-2015 18:04 Восторг Палуза Скачать торрент  

Восторг Палуза / Rapture-Palooza
Год выпуска: 2013
Страна: США / Lionsgate, Mimran Schur Pictures, Mosaic Media Group
Жанр: фэнтези, комедия
Продолжительность: 01:24:52
Перевод: Профессиональный многоголосый

Режиссер: Пол Миддледитч

IMDB 5.20 (6885)


В ролях: Крэйг Робинсон, Анна Кендрик, Джон Фрэнсис Дейли, Роб Кордри, Ана Гастейер, Кэлам Уорси, Джесси Камачо, Томас Леннон, Кен Жонг, Джон Майкл Хиггинс

Описание: Это веселая история рассказывает о последствиях религиозного апокалипсиса.

Качество: HDRip
Формат: AVI
Видео кодек: XviD
Аудио кодек: AC3
Видео: 720x304 (2.37:1), 23.976 fps, XviD build 50 ~2268 kbps avg, 0.43 bit/pixel
Аудио: 48 kHz, AC3 Dolby Digital, 2/0 (L,R) Surround Encoded ch, ~192 kbps
скриншот   скриншот   скриншот   скриншот   скриншот   скриншот   скриншот   скриншот   скриншот   скриншот  

Общее
Полное имя : F:\кино\Восторг Палуза.2013.HDRip.avi
Формат : AVI
Формат/Информация : Audio Video Interleave
Размер файла : 1,46 Гбайт
Продолжительность : 1 ч. 24 м.
Общий поток : 2470 Кбит/сек
Программа кодирования : VirtualDubMod 1.5.10.3 | www.virtualdub-fr.org || (build 2550/release)
Библиотека кодирования : VirtualDubMod build 2550/release

Видео
Идентификатор : 0
Формат : MPEG-4 Visual
Профиль формата : Advanced Simple@L5
Параметр BVOP формата : 2
Параметр QPel формата : Нет
Параметр GMC формата : Без точки перехода
Параметр матрицы формата : Default (H.263)
Идентификатор кодека : XVID
Идентификатор кодека/Подсказка : XviD
Продолжительность : 1 ч. 24 м.
Битрейт : 2269 Кбит/сек
Ширина : 720 пикселей
Высота : 304 пикселя
Соотношение сторон : 2,35:1
Частота кадров : 23,976 кадра/сек
Цветовое пространство : YUV
Субдискретизация насыщенности : 4:2:0
Битовая глубина : 8 бит
Тип развёртки : Прогрессивная
Метод сжатия : С потерями
Бит/(Пиксели*Кадры) : 0.432
Размер потока : 1,34 Гбайт (92%)
Библиотека кодирования : XviD 1.2.1 (UTC 2008-12-04)

Аудио
Идентификатор : 1
Формат : AC-3
Формат/Информация : Audio Coding 3
Профиль формата : Dolby Digital
Расширение режима : CM (complete main)
Параметр Endianness формата : Big
Идентификатор кодека : 2000
Продолжительность : 1 ч. 24 м.
Вид битрейта : Постоянный
Битрейт : 192 Кбит/сек
Каналы : 2 канала
Расположение каналов : Front: L R
Частота : 48,0 КГц
Битовая глубина : 16 бит
Метод сжатия : С потерями
Размер потока : 117 Мбайт (8%)
Выравнивание : Разделение по промежуткам
Продолжительность промежутка : 42 мс. (1,00 видеокадр)
Время предзагрузки промежутка : 500 мс.

pb.wtf



Скачать Восторг Палуза через торрент http://pic1.kartinco.top/images/10/5w5pe.jpg Скачать фильм Восторг Палуза через торрент бесплантно в хорошем качестве Описание: Это веселая история рассказывает о последствиях религиозного ... 7.1 10 16
Торрент: Зарегистрирован [2015-04-25 18:04] · скачан: 294 раз
Статус: √ проверено
Размер: 1.46 GB
Как cкачать? Как скачать Восторг Палуза через торрент | UTorrent

28-11-2019 20:33  

Отключить всю рекламу на сайте

    Дорогой пользователь! Огромная просьба, поблагодарите релизера, оцените раздачу и оставьте свои комментарий, если Вы скачали Восторг Палуза через торрент бесплатно! Внесите свою лепту в развитие PiratBit!
    Комментировать посты могут только пользователи прошедшие не сложную регистрацию
    Показать сообщения:    

    Восторг Палуза через торрент
    Скачать бесплатно Восторг Палуза
    Восторг Палуза скачать торрент
    Восторг Палуза смотреть онлайн
    Cкачать фильм Восторг Палуза бесплатно
    Восторг Палуза скачать торрент в хорошем качестве
    Восторг Палуза смотреть онлайн бесплатно в хорошем качестве


    Вы не можете начинать темы
    Вы не можете отвечать на сообщения
    Вы не можете редактировать свои сообщения
    Вы не можете удалять свои сообщения
    Вы не можете голосовать в опросах
    Вы не можете прикреплять файлы к сообщениям
    Вы можете скачивать файлы