Ссылка на приватное зеркало нашего сайта всего за 1$. Внимание количество ограничено!!!

2 сезон

iTunes

1 сезон

1

iTunes

iTunes

iTunes

1 сезон

RePack

30

ИГРА 18+

pack

ВАЖНО

!!Акция!!

Alien_RageХит недели

RePack

MK11
pack

Забери бонус

RePack

jed

!!Акция!!

Alien_Rage

RePack

fifa19

RePack

Assassins Creed: Odyssey

RePack

NEED FOR SPEED™ PAYBACK

4 сезон

9 сезон

Бесстыжие 9 сезон

Все сериалы

все сериалы на PB.wtf

RePack

FAR CRY 5
  

Четыре комнаты / Four Rooms (Эллисон Андерс, Роберт Родригес, Александр Рокуэлл, Квентин Тарантино) [1995, комедия, BDRip 720p] DVO, 3 x AVO pb.wtf

Четыре комнаты через торрент pb.wtf

Раздают: 1 [ 0 KB/s ]
Размер: 4.63 GB | Добавлен: 5 лет 6 мес. назад | Торрент скачан:352 раза
Скачать  

26-04-2015 08:38 Четыре комнаты Скачать торрент  


Название: Четыре комнаты
Оригинальное название: Four Rooms
Год выпуска: 1995
Страна: США
Жанр: комедия
Продолжительность: 01:37:48
Перевод: профессиональный двухголосый, авторский

Режиссёр: Эллисон Андерс, Роберт Родригес, Александр Рокуэлл, Квентин Тарантино

В ролях: Тим Рот, Мадонна, Дэвид Провэл, Мариса Томей, Антонио Бандерас, Квентин Тарантино, Брюс Уиллис, Айони Скай, Сальма Хайек, Валерия Голино, Аманда Де Кадене, Сэмми Дэвис

Описание: Озорная комедия состоит из четырёх новелл (каждый режиссёр сделал по одной), связанных одним героем — коридорным Тедом, вышедшим на работу накануне Нового года. Он попадает на шабаш ведьм, чуть не погибает от руки ревнивого мужа, еле уносит ноги от шаловливых детишек гангстера, принимает участие в странном пари эксцентричных господ. Но, не смотря на все сомнительные приключения, коридорный сохраняет невозмутимость в любых, самых невероятных ситуациях...



Качество: BDRip 720p Сравнение с исходником
Формат: MKV
Видео кодек: H.264
Аудио кодек: AC3
Видео: MPEG-4 AVC, 4716 Кбит/с, 1280x690, 23,976 кадра/с
Аудио 1: русский, AC3, 448 kbps, 6 ch, 48 kHz [профессиональный двухголосый, Premier Digital]
Аудио 2: русский, AC3, 448 kbps, 6 ch, 48 kHz [авторский, Юрий Живов]
Аудио 3: русский, AC3, 384 kbps, 6 ch, 48 kHz [авторский, Владимир Завгородний]
Аудио 4: русский, AC3, 192 kbps, 2 ch, 48 kHz [авторский, Михаил Иванов]
Аудио 5: английский, AC3, 448 kbps, 6 ch, 48 kHz [оригинал]
Субтитры 1: русские
Субтитры 2: английские
Премия канала «MTV», 1996 год
Номинации (1):
Лучший сэндвич, показанный в кино

Золотая малина, 1996 год
Победитель (1):
Худшая женская роль второго плана (Мадонна)
frame I:1111 Avg QP:15.46 size: 94577
frame P:26764 Avg QP:16.44 size: 45058
frame B:112827 Avg QP:18.69 size: 19896

Общее
Уникальный идентификатор : 227978459046273464934998218963152480123 (0xAB830DD92FA7D173AEA1EBB30C9B277B)
Полное имя : D:VideoЧетыре комнаты.1995.BDRip.720p.mkv
Формат : Matroska
Версия формата : Version 4 / Version 2
Размер файла : 4,63 Гбайт
Продолжительность : 1 ч. 37 м.
Общий поток : 6771 Кбит/сек
Название фильма : BDRip -- STarankov
Дата кодирования : UTC 2015-04-26 05:53:23
Программа кодирования : mkvmerge v7.8.0 ('River Man') 64bit built on Mar 27 2015 16:31:37
Библиотека кодирования : libebml v1.3.1 + libmatroska v1.4.2
_STATISTICS_WRITING_APP : mkvmerge v7.8.0 ('River Man') 64bit built on Mar 27 2015 16:31:37
_STATISTICS_WRITING_DATE_UTC : 2015-04-26 05:53:23
_STATISTICS_TAGS : BPS DURATION NUMBER_OF_FRAMES NUMBER_OF_BYTES
DURATION : 01:34:00.969000000
NUMBER_OF_FRAMES : 1263
NUMBER_OF_BYTES : 49555

Видео
Идентификатор : 1
Формат : AVC
Формат/Информация : Advanced Video Codec
Профиль формата : High@L4.1
Параметр CABAC формата : Да
Параметр ReFrames формата : 9 кадров
Идентификатор кодека : V_MPEG4/ISO/AVC
Продолжительность : 1 ч. 37 м.
Битрейт : 4716 Кбит/сек
Ширина : 1280 пикселей
Высота : 690 пикселей
Соотношение сторон : 1,85:1
Режим частоты кадров : Постоянный
Частота кадров : 23,976 кадра/сек
Цветовое пространство : YUV
Субдискретизация насыщенности : 4:2:0
Битовая глубина : 8 бит
Тип развёртки : Прогрессивная
Бит/(Пиксели*Кадры) : 0.223
Размер потока : 3,22 Гбайт (70%)
Библиотека кодирования : x264 core 146 r2538 121396c
Настройки программы : cabac=1 / ref=9 / deblock=1:-1:-1 / analyse=0x3:0x113 / me=umh / subme=10 / psy=1 / psy_rd=1.00:0.15 / mixed_ref=1 / me_range=32 / chroma_me=1 / trellis=2 / 8x8dct=1 / cqm=0 / deadzone=21,11 / fast_pskip=1 / chroma_qp_offset=-3 / threads=6 / lookahead_threads=1 / sliced_threads=0 / nr=0 / decimate=1 / interlaced=0 / bluray_compat=0 / constrained_intra=0 / bframes=8 / b_pyramid=2 / b_adapt=2 / b_bias=0 / direct=1 / weightb=1 / open_gop=0 / weightp=2 / keyint=230 / keyint_min=23 / scenecut=40 / intra_refresh=0 / rc_lookahead=40 / rc=crf / mbtree=0 / crf=18.3 / qcomp=0.60 / qpmin=0 / qpmax=69 / qpstep=4 / vbv_maxrate=40000 / vbv_bufsize=50000 / crf_max=0.0 / nal_hrd=none / filler=0 / ip_ratio=1.40 / pb_ratio=1.30 / aq=1:1.00
Язык : English
Default : Да
Forced : Нет
DURATION : 01:37:48.446000000
NUMBER_OF_FRAMES : 140702
NUMBER_OF_BYTES : 3555841978
_STATISTICS_WRITING_APP : mkvmerge v7.8.0 ('River Man') 64bit built on Mar 27 2015 16:31:37
_STATISTICS_WRITING_DATE_UTC : 2015-04-26 05:53:23
_STATISTICS_TAGS : BPS DURATION NUMBER_OF_FRAMES NUMBER_OF_BYTES

Аудио #1
Идентификатор : 2
Формат : AC-3
Формат/Информация : Audio Coding 3
Расширение режима : CM (complete main)
Параметр Endianness формата : Big
Идентификатор кодека : A_AC3
Продолжительность : 1 ч. 37 м.
Вид битрейта : Постоянный
Битрейт : 448 Кбит/сек
Каналы : 6 каналов
Расположение каналов : Front: L C R, Side: L R, LFE
Частота : 48,0 КГц
Битовая глубина : 16 бит
Метод сжатия : С потерями
Размер потока : 313 Мбайт (7%)
Заголовок : DVO (Premier Digital)
Язык : Russian
Default : Да
Forced : Нет

Аудио #2
Идентификатор : 3
Формат : AC-3
Формат/Информация : Audio Coding 3
Расширение режима : CM (complete main)
Параметр Endianness формата : Big
Идентификатор кодека : A_AC3
Продолжительность : 1 ч. 37 м.
Вид битрейта : Постоянный
Битрейт : 448 Кбит/сек
Каналы : 6 каналов
Расположение каналов : Front: L C R, Side: L R, LFE
Частота : 48,0 КГц
Битовая глубина : 16 бит
Метод сжатия : С потерями
Размер потока : 313 Мбайт (7%)
Заголовок : AVO (Юрий Живов)
Язык : Russian
Default : Нет
Forced : Нет

Аудио #3
Идентификатор : 4
Формат : AC-3
Формат/Информация : Audio Coding 3
Расширение режима : CM (complete main)
Параметр Endianness формата : Big
Идентификатор кодека : A_AC3
Продолжительность : 1 ч. 37 м.
Вид битрейта : Постоянный
Битрейт : 384 Кбит/сек
Каналы : 6 каналов
Расположение каналов : Front: L C R, Side: L R, LFE
Частота : 48,0 КГц
Битовая глубина : 16 бит
Метод сжатия : С потерями
Размер потока : 269 Мбайт (6%)
Заголовок : AVO (Владимир Завгородний)
Язык : Russian
Default : Нет
Forced : Нет

Аудио #4
Идентификатор : 5
Формат : AC-3
Формат/Информация : Audio Coding 3
Расширение режима : CM (complete main)
Параметр Endianness формата : Big
Идентификатор кодека : A_AC3
Продолжительность : 1 ч. 37 м.
Вид битрейта : Постоянный
Битрейт : 192 Кбит/сек
Каналы : 2 канала
Расположение каналов : Front: L R
Частота : 48,0 КГц
Битовая глубина : 16 бит
Метод сжатия : С потерями
Размер потока : 134 Мбайт (3%)
Заголовок : AVO (Михаил Иванов)
Язык : Russian
Default : Нет
Forced : Нет

Аудио #5
Идентификатор : 6
Формат : AC-3
Формат/Информация : Audio Coding 3
Расширение режима : CM (complete main)
Параметр Endianness формата : Big
Идентификатор кодека : A_AC3
Продолжительность : 1 ч. 37 м.
Вид битрейта : Постоянный
Битрейт : 448 Кбит/сек
Каналы : 6 каналов
Расположение каналов : Front: L C R, Side: L R, LFE
Частота : 48,0 КГц
Битовая глубина : 16 бит
Метод сжатия : С потерями
Размер потока : 313 Мбайт (7%)
Заголовок : Original
Язык : English
Default : Нет
Forced : Нет

Текст #1
Идентификатор : 7
Формат : UTF-8
Идентификатор кодека : S_TEXT/UTF8
Идентификатор кодека/Информация : UTF-8 Plain Text
Заголовок : русские
Язык : Russian
Default : Нет
Forced : Нет

Текст #2
Идентификатор : 8
Формат : UTF-8
Идентификатор кодека : S_TEXT/UTF8
Идентификатор кодека/Информация : UTF-8 Plain Text
Заголовок : английские
Default : Нет
Forced : Нет
pb.wtf



Скачать Четыре комнаты через торрент http://i47.fastpic.ru/big/2015/0425/37/8830198f1124476afd629234139f6e37.jpg Скачать фильм Четыре комнаты через торрент бесплантно в хорошем качестве Описание: Озорная комедия состоит из четырёх новелл (каждый режиссёр сделал по одной), связанных одним героем — коридорным Тедом, вышедшим ... 10 10 14
Info! Золотая раздача, скачанное не засчитывается.
Торрент: Зарегистрирован [2015-04-26 08:38] · скачан: 352 раз
Статус: √ проверено
Размер: 4.63 GB
Как cкачать? Как скачать Четыре комнаты через торрент | qTorrent

% Раздел Тема Автор DL S | L
Фильмы [HD 720p, 1080p] (Хороший звук DUB, MVO) [ 12 GB ] Четыре комнаты / Four Rooms [1995 BDRip 1080p] DVO 3 x AVO msltel Скачать
1 | 0
Фильмы до 2000 г. [ 3.2 GB ] Четыре комнаты / Four Rooms [1995 BDRip AVC] DVO 3 x AVO msltel Скачать
1 | 0

28-11-2019 20:33  

Отключить всю рекламу на сайте

26-04-2015 10:42 Четыре комнаты Скачать торрент  

Фильм шедеврален!Спасибо!С удовольствием посмотрю ещё раз. pb.wtf



    Дорогой пользователь! Огромная просьба, поблагодарите релизера, оцените раздачу и оставьте свои комментарий, если Вы скачали Четыре комнаты через торрент бесплатно! Внесите свою лепту в развитие PiratBit!
    Комментировать посты могут только пользователи прошедшие не сложную регистрацию
    Показать сообщения:    

    Четыре комнаты через торрент
    Скачать бесплатно Четыре комнаты
    Четыре комнаты скачать торрент
    Четыре комнаты смотреть онлайн
    Cкачать фильм Четыре комнаты бесплатно
    Четыре комнаты скачать торрент в хорошем качестве
    Четыре комнаты смотреть онлайн бесплатно в хорошем качестве


    Вы не можете начинать темы
    Вы не можете отвечать на сообщения
    Вы не можете редактировать свои сообщения
    Вы не можете удалять свои сообщения
    Вы не можете голосовать в опросах
    Вы не можете прикреплять файлы к сообщениям
    Вы можете скачивать файлы