Ссылка на приватное зеркало нашего сайта всего за 1$. Внимание количество ограничено!!!

2 сезон

iTunes

1 сезон

1

2 сезон

2 сезон

iTunes

1 сезон

RePack

30

Новинка

ВАЖНО

ИГРА 18+

pack

RePack

MK11
pack

Забери бонус

RePack

jed

!!Акция!!

Alien_Rage

RePack

fifa19

RePack

Assassins Creed: Odyssey

RePack

NEED FOR SPEED™ PAYBACK

4 сезон

9 сезон

Бесстыжие 9 сезон

Все сериалы

все сериалы на PB.wtf

RePack

FAR CRY 5
  

Уэйуорд Пайнс / Wayward Pines / Сезон: 1 / Серии 1-10 из 10 (Зал Батманглидж / Zal Batmanglij, Тим Хантер / Tim Hunter, Нимрод Антал / Nimród Antal) [2015, США, драма, детектив, HDTV-720р, MVO] [AlexFilm] pb.wtf

Уэйуорд Пайнс через торрент pb.wtf

Размер: 14.62 GB | Добавлен: 5 лет 4 мес. назад | Торрент скачан:99 раз
Скачать  

26-04-2015 10:16 Уэйуорд Пайнс Скачать торрент  

Уэйуорд Пайнс / Wayward Pines


  • Год выпуска: 2015
  • Страна: США
  • Жанр: драма, детектив
  • Продолжительность: 00:43:38 (Серия)
  • Перевод: Профессиональный многоголосый закадровый) [AlexFilm]

  • Режиссер: Зал Батманглидж / Zal Batmanglij, Тим Хантер / Tim Hunter, Нимрод Антал / Nimród Antal
  • В ролях:

    Мэтт Диллон (Ethan Burke), Карла Гуджино (Kate Hewson), Тоби Джонс (Dr. Jenkins), Шаннин Соссамон (Theresa Burke), Рид Даймонд (Harold Balinger), Тим Гриффин (Adam Hassler), Чарли Тахэн (Ben Burke), Джульетт Льюис (Beverly), Мелисса Лео (Nurse Pam), Терренс Ховард (Sheriff Pope), Хоуп Дэвис (Megan Fisher), Шиван Фэллон (Arlene Moran)

  • Описание:
    Агент секретной службы Итан Берк приезжает в пасторальный городок Уэйуорд Пайнс в Айдахо, чтобы найти двух пропавших фэбээровцев. Но расследование вместо ответов приносит лишь новые вопросы. Что же происходит в Уэйуорд Пайнс?
  • Рейтинг:



  • Качество: HDTV-720р
  • Формат: :MKV
  • Видео кодек: AVC
  • Аудио кодек: AC3
  • Видео: 1280x720 (16:9), 3127 kbps, 23,976 fps, 0,142 bpp
  • Аудио №1: русский / 5.1 / 48 kHz / 384 kbps / 16 bit ||
  • Аудио №2: английский / 5.1 / 48 kHz / 384 kbps / 16 bit
  • Релиз от: GEKADOL

    Код:

    Внимание! Раздача ведётся путём добавления новых серий; при каждом добавлении создаётся новый торрент. Чтобы начать докачку новой серии, пользователям необходимо сделать следующее:
    (1) остановить скачивание,
    (2) удалить старый торрент у себя из клиента (старые серии удалять не надо),
    (3) скачать новый торрент и запустить его у себя в клиенте вместо старого, при этом указать клиенту путь в старую папку куда и должно происходить скачивание новых серий.
    Ваш клиент при этом должен произвести хеширование (проверку) старой папки (если не производит сам - помогите ему сделать это), и будет докачивать только те серии которых у вас ещё нет. Старые серии при этом не удаляются, а продолжают раздаваться!
    Eсли вы уже удалили старые серии, то предотвратить повторную закачку старых серий можно, отжав галочку в соответствующих местах при запуске нового торрента. По возможности, желательно не удалять старые серии как можно дольше чтобы релизёр не столько продолжал раздавать старые серии, а смог сконцентрироваться на новых.


    Код:

    General
    Unique ID                                : 235230754092461367883850905646728380326 (0xB0F7CB99BF48D0DCA0E1FAECBCEA7FA6)
    Complete name                            : E:\Wayward Pines  - Season 1 (AlexFilm) HDTVRip 720p\Wayward.Pines.s01e01.HDTVRip.720p.Rus.Eng.AlexFilm.mkv
    Format                                   : Matroska
    Format version                           : Version 4 / Version 2
    File size                                : 1.21 GiB
    Duration                                 : 43mn 38s
    Overall bit rate                         : 3 975 Kbps
    Movie name                               : Wayward Pines 1x01 @ AlexFilm
    Encoded date                             : UTC 2015-04-25 20:58:35
    Writing application                      : mkvmerge v7.1.0 ('Good Love') 64bit built on Jul 27 2014 13:06:55
    Writing library                          : libebml v1.3.0 + libmatroska v1.4.1
    DURATION                                 : 00:43:38.784000000
    NUMBER_OF_FRAMES                         : 81837
    NUMBER_OF_BYTES                          : 125701632
    _STATISTICS_WRITING_APP                  : mkvmerge v7.1.0 ('Good Love') 64bit built on Jul 27 2014 13:06:55
    _STATISTICS_WRITING_DATE_UTC             : 2015-04-25 20:58:35
    _STATISTICS_TAGS                         : BPS DURATION NUMBER_OF_FRAMES NUMBER_OF_BYTES

    Video
    ID                                       : 1
    Format                                   : AVC
    Format/Info                              : Advanced Video Codec
    Format profile                           : High@L4.1
    Format settings, CABAC                   : Yes
    Format settings, ReFrames                : 5 frames
    Codec ID                                 : V_MPEG4/ISO/AVC
    Duration                                 : 43mn 38s
    Bit rate                                 : 3 127 Kbps
    Width                                    : 1 280 pixels
    Height                                   : 720 pixels
    Display aspect ratio                     : 16:9
    Frame rate                               : 23.976 fps
    Color space                              : YUV
    Chroma subsampling                       : 4:2:0
    Bit depth                                : 8 bits
    Scan type                                : Progressive
    Bits/(Pixel*Frame)                       : 0.142
    Stream size                              : 976 MiB (79%)
    Writing library                          : x264 core 146 r2538 121396c
    Encoding settings                        : cabac=1 / ref=5 / deblock=1:0:0 / analyse=0x3:0x113 / me=umh / subme=8 / psy=1 / psy_rd=1.00:0.00 / mixed_ref=1 / me_range=16 / chroma_me=1 / trellis=1 / 8x8dct=1 / cqm=0 / deadzone=21,11 / fast_pskip=1 / chroma_qp_offset=-2 / threads=6 / lookahead_threads=1 / sliced_threads=0 / nr=0 / decimate=1 / interlaced=0 / bluray_compat=0 / constrained_intra=0 / bframes=3 / b_pyramid=2 / b_adapt=2 / b_bias=0 / direct=3 / weightb=1 / open_gop=0 / weightp=2 / keyint=250 / keyint_min=25 / scenecut=40 / intra_refresh=0 / rc_lookahead=50 / rc=crf / mbtree=1 / crf=18.0 / qcomp=0.60 / qpmin=0 / qpmax=69 / qpstep=4 / ip_ratio=1.40 / aq=1:1.00
    Language                                 : English
    Default                                  : Yes
    Forced                                   : No
    DURATION                                 : 00:43:38.741000000
    NUMBER_OF_FRAMES                         : 62784
    NUMBER_OF_BYTES                          : 1049073297
    _STATISTICS_WRITING_APP                  : mkvmerge v7.1.0 ('Good Love') 64bit built on Jul 27 2014 13:06:55
    _STATISTICS_WRITING_DATE_UTC             : 2015-04-25 20:58:35
    _STATISTICS_TAGS                         : BPS DURATION NUMBER_OF_FRAMES NUMBER_OF_BYTES

    Audio #1
    ID                                       : 2
    Format                                   : AC-3
    Format/Info                              : Audio Coding 3
    Mode extension                           : CM (complete main)
    Codec ID                                 : A_AC3
    Duration                                 : 43mn 38s
    Bit rate mode                            : Constant
    Bit rate                                 : 384 Kbps
    Channel(s)                               : 6 channels
    Channel positions                        : Front: L C R, Side: L R, LFE
    Sampling rate                            : 48.0 KHz
    Bit depth                                : 16 bits
    Compression mode                         : Lossy
    Stream size                              : 120 MiB (10%)
    Title                                    : DD5.1 AlexFilm
    Language                                 : Russian
    Default                                  : Yes
    Forced                                   : No

    Audio #2
    ID                                       : 3
    Format                                   : AC-3
    Format/Info                              : Audio Coding 3
    Mode extension                           : CM (complete main)
    Codec ID                                 : A_AC3
    Duration                                 : 43mn 38s
    Bit rate mode                            : Constant
    Bit rate                                 : 384 Kbps
    Channel(s)                               : 6 channels
    Channel positions                        : Front: L C R, Side: L R, LFE
    Sampling rate                            : 48.0 KHz
    Bit depth                                : 16 bits
    Compression mode                         : Lossy
    Stream size                              : 120 MiB (10%)
    Title                                    : DD5.1 Original
    Language                                 : English
    Default                                  : No
    Forced                                   : No


    Скриншоты:
    скриншот   скриншот   скриншот   скриншот   скриншот  
    скриншот  

    Раздача ведётся путём добавления новых серий. Добавлена 10 серия (22.07.2015).Просьба перекачать торрент файл.

    pb.wtf



  • Скачать Уэйуорд Пайнс через торрент http://i59.fastpic.ru/big/2015/0426/78/b26e038cd0ed1a78767f6b737b4d7178.jpg Скачать фильм Уэйуорд Пайнс через торрент бесплантно в хорошем качестве Описание: Агент секретной службы Итан Берк приезжает в пасторальный городок Уэйуорд Пайнс в Айдахо, чтобы найти двух пропавших фэбээровцев. ... 9.9 10 22
    Info! Золотая раздача, скачанное не засчитывается.
    Торрент: Зарегистрирован [2015-07-22 01:43] · скачан: 99 раз
    Статус: √ проверено
    Размер: 14.62 GB
    Как cкачать? Как скачать Уэйуорд Пайнс через торрент | qTorrent

    % Раздел Тема Автор DL S | L
    Зарубежные сериалы [ 8.78 GB ] Уэйуорд Пайнс / Сосны / Wayward Pines / Сезон: 2 / Серии 1-10 из 10 [2016 WEB-DLRip-AVC] MVO [BaibaKo] GEKADOL Скачать
    1 | 0
    Зарубежные сериалы [ 8.76 GB ] Уэйуорд Пайнс / Сосны / Wayward Pines / Сезон: 2 / Серии 1-10 из 10 [2016 WEB-DLRip-AVC] MVO [AlexFilm] GEKADOL Скачать
    1 | 0
    Зарубежные сериалы [ 25.94 GB ] Сосны / Уэйуорд Пайнс / Wayward Pines / Сезон: 1 / Серии: 1-10 из 10 [ 2015 HDTV 1080p] DVO [Кубик в кубе] + Original Messa-fan Скачать
    1 | 0
    Зарубежные сериалы [ 10.43 GB ] Сосны / Уэйуорд Пайнс / Wayward Pines / Сезон: 1/ Серии: 1-10 из 10 [ 2015 HDTV 720p] DVO [Кубик в кубе] + Original Messa-fan Скачать
    1 | 0
    Зарубежные сериалы [ 5.19 GB ] Уэйуорд Пайнс / Wayward Pines / Сезон: 1 / Серии 1-10 из 10 [2015 HDTVRip MVO] [AlexFilm] GEKADOL Скачать
    1 | 0
    Зарубежные сериалы [ 12.73 GB ] Уэйуорд Пайнс / Сосны / Wayward Pines / Сезон: 1 / Серии: 1-10 из 10 [2015 WEB-DLRip 720p] MVO 10oN Скачать
    1 | 0
    Зарубежные сериалы [ 25.26 GB ] Уэйуорд Пайнс / Wayward Pines / Сезон: 1 / Серии 1-10 из 10 [2015 HDTV-1080р] MVO [AlexFilm] GEKADOL Скачать
    1 | 0


    Последний раз редактировалось: GEKADOL (2015-07-22 01:43), всего редактировалось 11 раз(а)

    28-11-2019 20:33  

    Отключить всю рекламу на сайте

    26-04-2015 10:43 Уэйуорд Пайнс Скачать торрент  

    спасибо! pb.wtf



    26-04-2015 10:45 Уэйуорд Пайнс Скачать торрент  

    dark messian писал(а):

    спасибо!

    Пока ток так) pb.wtf



    26-04-2015 19:11 Уэйуорд Пайнс Скачать торрент  

    Мутная мистика, но смотрибельно.
    Про то, как заехал в горродок, а выехать - шляпа, попадаешь опять обратно.pb.wtf



    26-04-2015 23:49 Уэйуорд Пайнс Скачать торрент  

    О, ещё и 720р есть. Хорошо-хорошо. Прям не знаю - начать смотреть или всё-таки дождаться выхода всего сезона.pb.wtf



    22-05-2015 04:56 Уэйуорд Пайнс Скачать торрент  

    Худшая озвучка на этот сериал из всех профф комманд.pb.wtf



    06-06-2015 05:57 Уэйуорд Пайнс Скачать торрент  

    под куплом в общемpb.wtf



    07-06-2015 09:48 Уэйуорд Пайнс Скачать торрент  

    kpuctaluk писал(а):

    под куплом в общем

    Неа. Не под куполом. Город Зеро... pb.wtf



      Дорогой пользователь! Огромная просьба, поблагодарите релизера, оцените раздачу и оставьте свои комментарий, если Вы скачали Уэйуорд Пайнс через торрент бесплатно! Внесите свою лепту в развитие PiratBit!
      Комментировать посты могут только пользователи прошедшие не сложную регистрацию
      Показать сообщения:    

      Уэйуорд Пайнс через торрент
      Скачать бесплатно Уэйуорд Пайнс
      Уэйуорд Пайнс скачать торрент
      Уэйуорд Пайнс смотреть онлайн
      Cкачать фильм Уэйуорд Пайнс бесплатно
      Уэйуорд Пайнс скачать торрент в хорошем качестве
      Уэйуорд Пайнс смотреть онлайн бесплатно в хорошем качестве


      Вы не можете начинать темы
      Вы не можете отвечать на сообщения
      Вы не можете редактировать свои сообщения
      Вы не можете удалять свои сообщения
      Вы не можете голосовать в опросах
      Вы не можете прикреплять файлы к сообщениям
      Вы можете скачивать файлы