Ссылка на приватное зеркало всего за 1$. Внимание количество ограничено!!!

iTunes

iTunes

iTunes

1

iTunes

iTunes

iTunes

iTunes

iTunes

30
pack

Новость дня

ВАЖНО

!!Акция!!

Alien_RageХит недели

RePack

Resident Evil 21

ИГРА 18+

pack

RePack

jed

!!Акция!!

Alien_Rage

RePack

fifa19

RePack

Assassins Creed: Odyssey

RePack

NEED FOR SPEED™ PAYBACK

4 сезон

9 сезон

Бесстыжие 9 сезон

Все сериалы

все сериалы на PB.wtf

RePack

FAR CRY 5
  

Битва за Севастополь (Сергей Мокрицкий) [2015 г., военный, драма, мелодрама, боевик, DVDRip "Лицензия"] pb.wtf

Битва за Севастополь через торрент pb.wtf

Размер: 711 MB | Добавлен: 5 лет 1 мес. назад | Торрент скачан:628 раз
Скачать  

26-04-2015 18:19 Битва за Севастополь Скачать торрент  

Битва за Севастополь
Год выпуска: 2015
Страна: Россия, Украина / Кинодел , Новые люди
Жанр: военный, драма, мелодрама, боевик
Продолжительность: 01:57:54
Режиссер: Сергей Мокрицкий

IMDB 7.80 (230)


В ролях: Юлия Пересильд, Евгений Цыганов, Олег Васильков, Никита Тарасов, Джоан Блэкэм, Полина Пахомова, Владимир Лилицкий, Анатолий Кот, Нателла Абелева-Таганова, Валерий Гришко

Описание: Любовь под нескончаемым огнем противника, дружба с Элеонорой Рузвельт, выступление на конференции, повлиявшее на исход Второй мировой войны, желание жить и страх потерять любимого человека — справится ли со всем этим хрупкая женщина?Это реальная история Людмилы Павличенко — легендарной женщины-снайпера. Солдаты шли в бой с ее именем на устах, а враги устроили на нее охоту. На поле битвы она видела смерть и страдания, но самым серьезным испытанием для нее стала любовь, которую у нее могла забрать война...

Качество: DVDRip
Формат: AVI
Видео кодек: XviD
Аудио кодек: MP3
Видео: 640x272 (2.35:1), 25 fps, XviD build 50 ~641 kbps avg, 0.15 bit/pixel
Аудио: 48 kHz, MPEG Layer 3, 2 ch, ~192.00 kbps avg
скриншот   скриншот   скриншот   скриншот   скриншот   скриншот  

Общее
Полное имя : D:\Битва за Севастополь.2015.DVDRip.700MB.avi
Формат : AVI
Формат/Информация : Audio Video Interleave
Размер файла : 711 Мбайт
Продолжительность : 1 ч. 57 м.
Общий поток : 843 Кбит/сек
Программа кодирования : VirtualDubMod 1.5.10.3 | www.virtualdub-fr.org || (build 2550/release)
Библиотека кодирования : VirtualDubMod build 2550/release

Видео
Идентификатор : 0
Формат : MPEG-4 Visual
Профиль формата : Advanced Simple@L5
Параметр BVOP формата : 2
Параметр QPel формата : Нет
Параметр GMC формата : Без точки перехода
Параметр матрицы формата : Default (H.263)
Идентификатор кодека : XVID
Идентификатор кодека/Подсказка : XviD
Продолжительность : 1 ч. 57 м.
Битрейт : 641 Кбит/сек
Ширина : 640 пикселей
Высота : 272 пикселя
Соотношение сторон : 2,35:1
Частота кадров : 25,000 кадров/сек
Цветовое пространство : YUV
Субдискретизация насыщенности : 4:2:0
Битовая глубина : 8 бит
Тип развёртки : Прогрессивная
Метод сжатия : С потерями
Бит/(Пиксели*Кадры) : 0.147
Размер потока : 541 Мбайт (76%)
Библиотека кодирования : XviD 1.2.1 (UTC 2008-12-04)

Аудио
Идентификатор : 1
Формат : MPEG Audio
Версия формата : Version 1
Профиль формата : Layer 3
Режим : Joint stereo
Расширение режима : MS Stereo
Идентификатор кодека : 55
Идентификатор кодека/Подсказка : MP3
Продолжительность : 1 ч. 57 м.
Вид битрейта : Постоянный
Битрейт : 192 Кбит/сек
Каналы : 2 канала
Частота : 48,0 КГц
Метод сжатия : С потерями
Размер потока : 162 Мбайт (23%)
Выравнивание : Соединение по промежуткам
Продолжительность промежутка : 40 мс. (1,00 видеокадр)
Время предзагрузки промежутка : 504 мс.
Библиотека кодирования : LAME3.99r
Настройки программы : -m j -V 4 -q 2 -lowpass 18.6 -b 192

pb.wtf



Скачать Битва за Севастополь через торрент http://pic1.kartinco.top/images/10/6rz8a.jpg Скачать фильм Битва за Севастополь через торрент бесплантно в хорошем качестве Описание: Любовь под нескончаемым огнем противника, дружба с Элеонорой Рузвельт, выступление на конференции, повлиявшее на исход Второй ... 9.1 10 20
Info! Золотая раздача, скачанное не засчитывается.
Торрент: Зарегистрирован [2015-04-26 18:19] · скачан: 628 раз
Статус: √ проверено
Размер: 711 MB
Как cкачать? Как скачать Битва за Севастополь через торрент | qTorrent

% Раздел Тема Автор DL S | L
Наши фильмы (Blu-ray, BD-Remux, HDDVD) [ 27.72 GB ] Битва за Севастополь [2015 Военный ВОВ реальные события BDRemux 1080p] / Ger Transfer / Russian Mafia Скачать
1 | 0
Наши новые фильмы 2015 [ 2.18 GB ] Битва за Севастополь [2015 Военный BDRip-AVC] [] potroks Скачать
1 | 0
Наши фильмы (HD, WEB-DL 720p, 1080p) [ 5.74 GB ] Битва за Севастополь [2015 военный BDRip 720p] [GER-Transfer] potroks Скачать
1 | 0
Наши новые фильмы 2015 [ 1.46 GB ] Битва за Севастополь [2015 военный DVDRip] ninla Скачать
1 | 0
Документальные фильмы и телепередачи [ 500 MB ] Легенды Крыма. Битва за Севастополь. [2015 Документальный военный DVB Оригинальный] кэп Скачать
1 | 0
T Наши фильмы (HD, WEB-DL 720p, 1080p) [ 5.99 GB ] Битва за Севастополь / Незламна [01-04 из 04] [2015 военный WEBRip 720p / Расширенная Телеверсия] Ворон Скачать
1 | 0
Наши фильмы (HD, WEB-DL 720p, 1080p) [ 9.88 GB ] Битва за Севастополь [2015 военный BDRip 1080p] Original Seedtank Скачать
1 | 0

28-11-2019 20:33  

Отключить всю рекламу на сайте

26-04-2015 19:19 Битва за Севастополь Скачать торрент  

много биографии снято :paratrooper: Ожидал большего.pb.wtf



26-04-2015 19:42 Битва за Севастополь Скачать торрент  

Я так и не понял, а где же сама битва?pb.wtf



26-04-2015 19:49 Битва за Севастополь Скачать торрент  

Sairoxx_1984 писал(а):

Я так и не понял, а где же сама битва?

это надо задавать умникам которые не захотели пускать в России этот фильм с оригинальным названиям "Несломленная".pb.wtf



27-04-2015 05:28 Битва за Севастополь Скачать торрент  

Сначала был "Сталинград"..........только без Сталинграда, теперь Севастополь........... без Севастополя, как же сказать режиссерам что недостаточно дать фильму название какого нибудь города-героя, а там снимай что хотса. Хотя сам фильм отнюдь не плох, а учитывая что у нас фильм шел /Украина/ называясь "Несломленная", то в принципе все становится на свои местаpb.wtf



    Дорогой пользователь! Огромная просьба, поблагодарите релизера, оцените раздачу и оставьте свои комментарий, если Вы скачали Битва за Севастополь через торрент бесплатно! Внесите свою лепту в развитие PiratBit!
    Комментировать посты могут только пользователи прошедшие не сложную регистрацию
    Показать сообщения:    

    Битва за Севастополь через торрент
    Скачать бесплатно Битва за Севастополь
    Битва за Севастополь скачать торрент
    Битва за Севастополь смотреть онлайн
    Cкачать фильм Битва за Севастополь бесплатно
    Битва за Севастополь скачать торрент в хорошем качестве
    Битва за Севастополь смотреть онлайн бесплатно в хорошем качестве


    Вы не можете начинать темы
    Вы не можете отвечать на сообщения
    Вы не можете редактировать свои сообщения
    Вы не можете удалять свои сообщения
    Вы не можете голосовать в опросах
    Вы не можете прикреплять файлы к сообщениям
    Вы можете скачивать файлы