Ссылка на приватное зеркало нашего сайта всего за 1$. Внимание количество ограничено!!!

2 сезон

iTunes

1 сезон

1

2 сезон

2 сезон

iTunes

1 сезон

RePack

30

Новинка

ВАЖНО

ИГРА 18+

pack

RePack

MK11
pack

Забери бонус

RePack

jed

!!Акция!!

Alien_Rage

RePack

fifa19

RePack

Assassins Creed: Odyssey

RePack

NEED FOR SPEED™ PAYBACK

4 сезон

9 сезон

Бесстыжие 9 сезон

Все сериалы

все сериалы на PB.wtf

RePack

FAR CRY 5
  

Однажды в Америке / Once Upon a Time in America (Серджио Леоне) [1983 г., драма, криминал, BDRip 720p] AVO (Extended Cut) (60 Fps) pb.wtf

Однажды в Америке через торрент pb.wtf

Раздают: 1 [ 0 KB/s ]
Размер: 8.91 GB | Добавлен: 5 лет 7 мес. назад | Торрент скачан:161 раз
Скачать  

28-04-2015 08:46 Однажды в Америке Скачать торрент  

Однажды в Америке / Once Upon a Time in AmericaExtended CutГод выпуска: 1983
Страна: США, Италия
Жанр: драма, криминал
Продолжительность: 04:11:00
Перевод: Авторский одноголосый закадровый (Сербин) - Новая
Субтитры: Русские (полные)

Режиссер: Серджио Леоне
Продюссер: Арнон Милчен, Клаудио Манчини
Сценарий: Леонардо Бенвенути, Пьеро Де Бернарди, Энрико Медиоли

Бюджет: $30 000 000
Премьера в мире: 17 февраля 1984

IMDB 8.40 (187 858)


В ролях: Роберт Де Ниро, Джеймс Вудс, Элизабет МакГоверн, Джо Пеши, Берт Янг, Тьюзди Уэлд, Трит Уильямс, Дэнни Айелло, Ричард Брайт, Джеймс Хейден

Описание: В бурные двадцатые годы, когда Америка веселилась под звуки джаза и каждый бродяга мечтал стать миллионером, в трущобах Нью-Йорка встретились несколько отчаянных парней. Убирая с дороги конкурентов, безжалостно карая предателей и нагло проворачивая хитроумные аферы, они стали королями преступного мира золотой эры «сухого закона». Они поклялись отдать жизнь друг за друга, зная, что самое главное для них — это дружба, долг и справедливость — не утопить в реках крови и бездонном океане денег. Спустя много лет судьба жестоко обошлась с легендарными гангстерами, заставив их исполнить свою клятву. Это случилось однажды в Америке...

Качество: BDRip 720p
Формат: MKV
Видео кодек: H.264
Аудио кодек: AC3
Видео: x264, 1280 x 688 (1,85:1), 4591 kbps, 59,880 fps, ( 0.087 bpp)
Аудио#1: AC-3, 48.0 KHz, 6 ch, 384 Kbps (Russian - AVO - Ю.Сербин (Новая) )



скриншот   скриншот   скриншот   скриншот   скриншот   скриншот  Автор рипа: slaventi-69
x264 [info]: frame I:4442 Avg QP:14.71 size: 94287
x264 [info]: frame P:266706 Avg QP:17.59 size: 22734
x264 [info]: frame B:632450 Avg QP:21.02 size: 3720
x264 [info]: consecutive B-frames: 4.2% 10.2% 21.4% 15.1% 49.1%


Общее
Уникальный идентификатор : 236102860764385995611212373012340146734 (0xB19FC1C77C5F03038CF605C874F6022E)
Полное имя : D:\ Once.Upon.a.Time.in.America(1984)BDRip.720p(60 Fps)Extended.Cut.mkv
Формат : Matroska
Версия формата : Version 4 / Version 2
Размер файла : 8,91 Гбайт
Продолжительность : 4 ч. 11 м.
Общий поток : 5077 Кбит/сек
Название фильма : Однажды в Америке / Once Upon a Time in America (1984) BDRip 720p (60 Fps) | Extended Cut
Дата кодирования : UTC 2015-04-27 16:40:22
Программа кодирования : mkvmerge v6.2.0 ('Promised Land') built on Apr 28 2013 12:22:01
Библиотека кодирования : libebml v1.3.0 + libmatroska v1.4.0

Видео
Идентификатор : 1
Формат : AVC
Формат/Информация : Advanced Video Codec
Профиль формата : High@L4.1
Параметр CABAC формата : Да
Параметр ReFrames формата : 4 кадра
Идентификатор кодека : V_MPEG4/ISO/AVC
Продолжительность : 4 ч. 11 м.
Битрейт : 4591 Кбит/сек
Ширина : 1280 пикселей
Высота : 688 пикселей
Соотношение сторон : 1,85:1
Режим частоты кадров : Постоянный
Частота кадров : 59,880 кадров/сек
Частота кадров в оригинале : 59,940 кадров/сек
Цветовое пространство : YUV
Субдискретизация насыщенности : 4:2:0
Битовая глубина : 8 бит
Тип развёртки : Прогрессивная
Бит/(Пиксели*Кадры) : 0.087
Размер потока : 8,06 Гбайт (90%)
Заголовок : Once Upon a Time in America (1984) BDRip 720p (60 Fps) Extended Cut.mkv
Библиотека кодирования : x264 core 130 r2273 b3065e6
Настройки программы : cabac=1 / ref=4 / deblock=1:-2:-2 / analyse=0x3:0x113 / me=umh / subme=7 / psy=1 / psy_rd=1.00:0.00 / mixed_ref=1 / me_range=16 / chroma_me=1 / trellis=2 / 8x8dct=1 / cqm=0 / deadzone=21,11 / fast_pskip=1 / chroma_qp_offset=-2 / threads=3 / lookahead_threads=1 / sliced_threads=0 / nr=0 / decimate=1 / interlaced=0 / bluray_compat=0 / constrained_intra=0 / bframes=4 / b_pyramid=2 / b_adapt=2 / b_bias=0 / direct=1 / weightb=1 / open_gop=0 / weightp=2 / keyint=250 / keyint_min=25 / scenecut=40 / intra_refresh=0 / rc_lookahead=50 / rc=crf / mbtree=1 / crf=16.5 / qcomp=0.60 / qpmin=0 / qpmax=69 / qpstep=4 / ip_ratio=1.40 / aq=1:1.00
Язык : English
Default : Да
Forced : Нет

Аудио
Идентификатор : 2
Формат : AC-3
Формат/Информация : Audio Coding 3
Расширение режима : CM (complete main)
Параметр Endianness формата : Big
Идентификатор кодека : A_AC3
Продолжительность : 4 ч. 11 м.
Вид битрейта : Постоянный
Битрейт : 384 Кбит/сек
Каналы : 6 каналов
Расположение каналов : Front: L C R, Side: L R, LFE
Частота : 48,0 КГц
Битовая глубина : 16 бит
Метод сжатия : С потерями
Размер потока : 690 Мбайт (8%)
Заголовок : AVO - Ю.Сербин (Новая)
Язык : Russian
Default : Да
Forced : Нет

Текст
Идентификатор : 3
Формат : UTF-8
Идентификатор кодека : S_TEXT/UTF8
Идентификатор кодека/Информация : UTF-8 Plain Text
Заголовок : Русские (полные)
Язык : Russian
Default : Нет
Forced : Нет

Меню
00:00:00.000 : :Chapter 01
00:03:28.916 : :Chapter 02
00:14:48.083 : :Chapter 03
00:24:36.000 : :Chapter 04
00:37:39.666 : :Chapter 05
00:45:50.166 : :Chapter 06
00:53:35.875 : :Chapter 07
01:04:46.874 : :Chapter 08
01:12:05.000 : :Chapter 09
01:22:31.583 : :Chapter 10
01:30:33.416 : :Chapter 11
01:38:18.875 : :Chapter 12
01:44:53.291 : :Chapter 13
01:52:24.875 : :Chapter 14
02:01:01.166 : :Chapter 15
02:08:37.625 : :Chapter 16
02:18:36.083 : :Chapter 17
02:27:45.875 : :Chapter 18
02:33:55.583 : :Chapter 19
02:42:24.666 : :Chapter 20
02:48:07.250 : :Chapter 21
02:55:59.333 : :Chapter 22
03:02:59.416 : :Chapter 23
03:08:52.416 : :Chapter 24
03:13:56.708 : :Chapter 25
03:22:56.208 : :Chapter 26
03:30:10.750 : :Chapter 27
03:40:32.625 : :Chapter 28
03:46:35.750 : :Chapter 29
03:54:51.333 : :Chapter 30
04:03:14.166 : :Chapter 31
04:06:44.750 : :Chapter 32


Однажды в Америке скачать торрент


pb.wtf



Скачать Однажды в Америке через торрент http://pic.kartinco.top/images/11/k6pyd.jpg Скачать фильм Однажды в Америке через торрент бесплантно в хорошем качестве Описание: В бурные двадцатые годы, когда Америка веселилась под звуки джаза и каждый бродяга мечтал стать миллионером, в трущобах Нью-Йорка ... 9.9 10 13
Торрент: Зарегистрирован [2015-04-28 08:46] · скачан: 161 раз
Статус: √ проверено
Размер: 8.91 GB
Как cкачать? Как скачать Однажды в Америке через торрент | qTorrent

% Раздел Тема Автор DL S | L
Фильмы [HD 720p, 1080p] (Хороший звук DUB, MVO) [ 4.74 GB ] Однажды в Америке / Once Upon a Time in America / Extended Director's Cut [1984 BDRip 1080p-HEVC 10bit ] ADVOKAT69 Скачать
4 | 0
Сборники (HD Video) [ 24.83 GB ] Однажды в Америке / Once Upon a Time in America [Серджио Леоне] [1984 BDRip 720p] Romeo0502 Скачать
1 | 0
Фильмы [HD 720p, 1080p] (Хороший звук DUB, MVO) [ 23.09 GB ] Однажды в Америке / Once Upon a Time in America [1983 BDRip 1080p MVO AVO] _denis_100 Скачать
1 | 0
Фильмы [HD 720p, 1080p] (Хороший звук DUB, MVO) [ 11 GB ] Однажды в Америке / Once Upon a Time in America [1983 история BDRip ] galysha Скачать
1 | 0
Фильмы (Blu-ray, BD-Remux, HDDVD) [ 41.25 GB ] Однажды в Америке / Once Upon a Time in America [1984 ьная BDRemux 1080p] MVO Ворон Скачать
1 | 0
Классика зарубежного кино [ 3.95 GB ] Однажды в Америке / Once Upon a Time in America [1984 г BDRip ]MVO -=Cherry=- Скачать
3 | 0
Классика зарубежного кино [ 2.92 GB ] Однажды в Америке / Once Upon a Time in America [1984 Гангстерский / DVDRip] nicadimas Скачать
1 | 0

28-11-2019 20:33  

Отключить всю рекламу на сайте

28-04-2015 10:26 Однажды в Америке Скачать торрент  

я смотрел в многоголоске.
p.s. Фильм отличный, но не лучший с Де Ниро. "Казино" и "Пробуждение" - думаю, это классика. Про godfather и упоминать не стоит)pb.wtf



28-04-2015 11:46 Однажды в Америке Скачать торрент  

ИМХО, фильм на ровне с выше перечисленными.pb.wtf



28-04-2015 12:30 Однажды в Америке Скачать торрент  

ууу круть! давно его не смотрел! качаю!pb.wtf



29-04-2015 07:48 Однажды в Америке Скачать торрент  

качество конечно не оченьpb.wtf



    Дорогой пользователь! Огромная просьба, поблагодарите релизера, оцените раздачу и оставьте свои комментарий, если Вы скачали Однажды в Америке через торрент бесплатно! Внесите свою лепту в развитие PiratBit!
    Комментировать посты могут только пользователи прошедшие не сложную регистрацию
    Показать сообщения:    

    Однажды в Америке через торрент
    Скачать бесплатно Однажды в Америке
    Однажды в Америке скачать торрент
    Однажды в Америке смотреть онлайн
    Cкачать фильм Однажды в Америке бесплатно
    Однажды в Америке скачать торрент в хорошем качестве
    Однажды в Америке смотреть онлайн бесплатно в хорошем качестве


    Вы не можете начинать темы
    Вы не можете отвечать на сообщения
    Вы не можете редактировать свои сообщения
    Вы не можете удалять свои сообщения
    Вы не можете голосовать в опросах
    Вы не можете прикреплять файлы к сообщениям
    Вы можете скачивать файлы