2 сезон

iTunes

MVO

1

2 сезон

iTunes

iTunes

1 сезон

RePack

30

Новинка

ВАЖНО

ИГРА 18+

pack

RePack

MK11
pack

Легкие деньги

RePack

jed

RePack

fifa19

RePack

RDR2

RePack

NEED FOR SPEED™ PAYBACK

4 сезон

9 сезон

Бесстыжие 9 сезон

Все сериалы

все сериалы на PB.wtf

RePack

FAR CRY 5

Anonymous, добрый день, мы не успеваем собрать деньги на оплату серверов за декабрь и январь, помогите нам пожалуйста в это трудное время. В качестве благодарности мы отключим Вам всю рекламу на сайте (укажите свой ник в строку Ваше имя)!

×
  
Magnet ссылка

Враг государства №1: Легенда / L'ennemi public №1 (Жан-Франсуа Рише) [2008 г., боевик, триллер, драма, криминал, биография, BDRip 720p, Дубляж + Оригинал] (60 fps) pb.wtf

Враг государства №1: Легенда через торрент pb.wtf

Размер: 5.51 GB | Добавлен: 5 лет 8 мес. назад | Торрент скачан:284 раза
Скачать  

28-04-2015 15:56 Враг государства №1: Легенда Скачать торрент  

Враг государства №1: Легенда / L'ennemi public №1
Год выпуска: 2008
Страна: Канада, Франция
Жанр: боевик, триллер, драма, криминал, биография
Продолжительность: 02:13:17
Перевод: Дубляж + Оригинал
Субтитры: Russian, English

Режиссер: Жан-Франсуа Рише
Продюссер: Тома Лангманн, Андре Руле, Максим Ремиллар
Сценарий: Абдель Рауф Дафри, Жан-Франсуа Рише

Бюджет: €21 166 000
Премьера в мире: 22 октября 2008

IMDB 7.50 (20 286)


В ролях: Венсан Кассель, Людивин Санье, Матьё Амальрик, Самюэль Ле Бьян, Жерар Ланвен, Оливье Гурме, Жорж Вильсон, Мишель Дюшоссуа, Анн Косиньи, Лор Марсак,

Роли дублировали: Тимофей Спивак, Лариса Некипелова, Денис Беспалый, Павел Кипнис, Сергей Вещёв

Описание: Жак Мерин, великий французский гангстер, прославился у себя на родине больше, чем самая яркая кинозвезда. Авантюры Мерина всегда были головокружительно бесшабашными, отчаянно дерзкими и абсолютно непредсказуемыми по своему замыслу. Не зря его называли «человеком с тысячью лиц». Отправляясь на новое крупное «дело», он всегда изменял облик, делал пластические операции, использовал грим... перевоплощаясь до неузнаваемости. Его боготворил народ, им восхищались женщины, а власти считали «врагом государства номер один»! А он и был именно таков. Его лихие «подвиги» и многочисленные побеги из тюрем, умопомрачительные любовные романы, феерические приключения и исключительно циничное, но по-галльски остроумное многолетнее издевательство над полицией — все это ныне превратилось для французов в подлинный народный эпос. Эпос о человеке, который умел быть настоящим героем. Или антигероем...


Качество: BDRip 720p / 60 Fps
Формат: MKV
Видео кодек: H.264
Аудио кодек: AC3
Видео: x264, 1280 x 688 (1,85:1), 5030 kbps, 59,880 fps, ( 0.095 bpp)
Аудио#1: AC-3, 48.0 KHz, 6 ch, 384 Kbps ( Профессиональный (Дубляж) )
Аудио#2: AC-3, 48.0 KHz, 6 ch, 384 Kbps ( Оригинал - Французский )



скриншот   скриншот   скриншот   скриншот   скриншот   скриншот  Автор рипа: slaventi-69
Общее
Уникальный идентификатор : 173568125012750858384165182530733984904 (0x8294014370EFBD4C8D2459B3FBBFCC88)
Полное имя : D:\ Mesrine.L'Ennemi.Public.No1.(2008).720p(60Fps)2.mkv
Формат : Matroska
Версия формата : Version 4 / Version 2
Размер файла : 5,51 Гбайт
Продолжительность : 2 ч. 13 м.
Общий поток : 5915 Кбит/сек
Название фильма : Враг государства №1 / Mesrine.L'Ennemi.Public.No1.2008.720p(60Fps)
Дата кодирования : UTC 2015-04-24 05:42:51
Программа кодирования : mkvmerge v6.2.0 ('Promised Land') built on Apr 28 2013 12:22:01
Библиотека кодирования : libebml v1.3.0 + libmatroska v1.4.0
Attachment : Yes / Yes / Yes / Yes / Yes / Yes / Yes

Видео
Идентификатор : 1
Формат : AVC
Формат/Информация : Advanced Video Codec
Профиль формата : High@L4.1
Параметр CABAC формата : Да
Параметр ReFrames формата : 4 кадра
Идентификатор кодека : V_MPEG4/ISO/AVC
Продолжительность : 2 ч. 13 м.
Битрейт : 5030 Кбит/сек
Ширина : 1280 пикселей
Высота : 688 пикселей
Соотношение сторон : 1,85:1
Режим частоты кадров : Постоянный
Частота кадров : 59,880 кадров/сек
Частота кадров в оригинале : 59,940 кадров/сек
Цветовое пространство : YUV
Субдискретизация насыщенности : 4:2:0
Битовая глубина : 8 бит
Тип развёртки : Прогрессивная
Бит/(Пиксели*Кадры) : 0.095
Размер потока : 4,68 Гбайт (85%)
Заголовок : Mesrine L'Ennemi Public No1 2008 720p (60Fps).mkv
Библиотека кодирования : x264 core 130 r2273 b3065e6
Настройки программы : cabac=1 / ref=4 / deblock=1:0:0 / analyse=0x3:0x113 / me=umh / subme=7 / psy=1 / psy_rd=1.00:0.00 / mixed_ref=1 / me_range=16 / chroma_me=1 / trellis=2 / 8x8dct=1 / cqm=0 / deadzone=21,11 / fast_pskip=1 / chroma_qp_offset=-2 / threads=3 / lookahead_threads=1 / sliced_threads=0 / nr=0 / decimate=1 / interlaced=0 / bluray_compat=0 / constrained_intra=0 / bframes=4 / b_pyramid=2 / b_adapt=2 / b_bias=0 / direct=3 / weightb=1 / open_gop=0 / weightp=2 / keyint=250 / keyint_min=25 / scenecut=40 / intra_refresh=0 / rc_lookahead=50 / rc=crf / mbtree=1 / crf=16.0 / qcomp=0.60 / qpmin=0 / qpmax=69 / qpstep=4 / ip_ratio=1.40 / aq=1:1.00
Default : Да
Forced : Нет

Аудио #1
Идентификатор : 2
Формат : AC-3
Формат/Информация : Audio Coding 3
Расширение режима : CM (complete main)
Параметр Endianness формата : Big
Идентификатор кодека : A_AC3
Продолжительность : 2 ч. 13 м.
Вид битрейта : Постоянный
Битрейт : 384 Кбит/сек
Каналы : 6 каналов
Расположение каналов : Front: L C R, Side: L R, LFE
Частота : 48,0 КГц
Битовая глубина : 16 бит
Метод сжатия : С потерями
Размер потока : 366 Мбайт (6%)
Язык : Russian
Default : Да
Forced : Нет

Аудио #2
Идентификатор : 3
Формат : AC-3
Формат/Информация : Audio Coding 3
Расширение режима : CM (complete main)
Параметр Endianness формата : Big
Идентификатор кодека : A_AC3
Продолжительность : 2 ч. 13 м.
Вид битрейта : Постоянный
Битрейт : 384 Кбит/сек
Каналы : 6 каналов
Расположение каналов : Front: L C R, Side: L R, LFE
Частота : 48,0 КГц
Битовая глубина : 16 бит
Метод сжатия : С потерями
Размер потока : 366 Мбайт (6%)
Заголовок : Original
Язык : French
Default : Нет
Forced : Нет

Текст #1
Идентификатор : 4
Формат : UTF-8
Идентификатор кодека : S_TEXT/UTF8
Идентификатор кодека/Информация : UTF-8 Plain Text
Язык : Russian
Default : Нет
Forced : Нет

Текст #2
Идентификатор : 5
Формат : ASS
Идентификатор кодека : S_TEXT/ASS
Идентификатор кодека/Информация : Advanced Sub Station Alpha
Метод сжатия : Без потерь
Язык : English
Default : Нет
Forced : Нет


Враг государства №1: Легенда скачать торрент


pb.wtf



Скачать Враг государства №1: Легенда через торрент https://pic.kartinco.top/images/11/zjfzx.jpg Скачать фильм Враг государства №1: Легенда через торрент бесплантно в хорошем качестве Описание: Жак Мерин, великий французский гангстер, прославился у себя на родине больше, чем самая яркая кинозвезда. Авантюры Мерина всегда ... 10 10 18
Торрент: Зарегистрирован [2015-04-28 15:56] · скачан: 284 раз
Статус: √ проверено
Размер: 5.51 GB
Как cкачать? Как скачать Враг государства №1: Легенда через торрент | UTorrent

28-11-2019 20:33  

Отключить всю рекламу на сайте

01-05-2015 13:56 Враг государства №1: Легенда Скачать торрент  

отличный фильм!pb.wtf



13-01-2016 08:04 Враг государства №1: Легенда Скачать торрент  

Заценим)pb.wtf



    Дорогой пользователь! Огромная просьба, поблагодарите релизера, оцените раздачу и оставьте свои комментарий, если Вы скачали Враг государства №1: Легенда через торрент бесплатно! Внесите свою лепту в развитие PiratBit!
    Комментировать посты могут только пользователи прошедшие не сложную регистрацию
    Показать сообщения:    

    Враг государства №1: Легенда через торрент
    Скачать бесплатно Враг государства №1: Легенда
    Враг государства №1: Легенда скачать торрент
    Враг государства №1: Легенда смотреть онлайн
    Cкачать фильм Враг государства №1: Легенда бесплатно
    Враг государства №1: Легенда скачать торрент в хорошем качестве
    Враг государства №1: Легенда смотреть онлайн бесплатно в хорошем качестве


    Вы не можете начинать темы
    Вы не можете отвечать на сообщения
    Вы не можете редактировать свои сообщения
    Вы не можете удалять свои сообщения
    Вы не можете голосовать в опросах
    Вы не можете прикреплять файлы к сообщениям
    Вы можете скачивать файлы