Ссылка на приватное зеркало всего за 1$. Внимание количество ограничено!!!

iTunes

iTunes

iTunes

1

iTunes

iTunes

iTunes

iTunes

iTunes

30
pack

Новость дня

ВАЖНО

!!Акция!!

Alien_RageХит недели

RePack

Resident Evil 21

ИГРА 18+

pack

RePack

jed

!!Акция!!

Alien_Rage

RePack

fifa19

RePack

Assassins Creed: Odyssey

RePack

NEED FOR SPEED™ PAYBACK

4 сезон

9 сезон

Бесстыжие 9 сезон

Все сериалы

все сериалы на PB.wtf

RePack

FAR CRY 5
  

Женщины против мужчин (Таир Мамедов) [2015 г., комедия, WEB-DLRip] pb.wtf

Женщины против мужчин через торрент pb.wtf

Размер: 1.46 GB | Добавлен: 5 лет 1 мес. назад | Торрент скачан:2752 раза
Скачать  

28-04-2015 17:58 Женщины против мужчин Скачать торрент  

Женщины против мужчин
Год выпуска: 2015
Страна: Россия / Enjoy Movies
Жанр: комедия
Продолжительность: 01:24:04

Режиссер: Таир Мамедов

IMDB 4.10 (25)


В ролях: Роман Юнусов, Александр Головин, Денис Косяков, Мария Кравченко, Настасья Самбурская, Наталья Рудова, Таир Мамедов, Олег Верещагин, Карен Манташян, Александр Шаляпин

Описание: Школьная любовь трех замечательных пар заканчивается тремя прекрасными свадьбами и сумасшедшим свадебным путешествием на экзотическую и горячую Кубу. Но первый же день долгожданного медового месяца окончился гигантской ссорой, переходящей в вечную войну мужчин против женщин. А на войне, как и в любви, правил нет! Пираньи в бассейн? Запросто! Пожар в номере? Не вопрос! Флирт на глазах у любимого мужа? Однозначно, да! И все это, конечно же, во имя любви!

Качество: WEB-DLRip
Формат: AVI
Видео кодек: XviD
Аудио кодек: AC3
Видео: 720x304 (2.37:1), 24.000 fps, XviD build 50 ~2101 kbps avg, 0.40 bit/pixel
Аудио: 48 kHz, AC3 Dolby Digital, 3/2 (L,C,R,l,r) + LFE ch, ~384 kbps
скриншот   скриншот   скриншот   скриншот   скриншот   скриншот  

Общее
Полное имя : F:\кино\Женщины против мужчин.2015.WEB-DLRip.avi
Формат : AVI
Формат/Информация : Audio Video Interleave
Размер файла : 1,46 Гбайт
Продолжительность : 1 ч. 24 м.
Общий поток : 2495 Кбит/сек
Программа кодирования : VirtualDubMod 1.5.10.3 | www.virtualdub-fr.org || (build 2550/release)
Библиотека кодирования : VirtualDubMod build 2550/release

Видео
Идентификатор : 0
Формат : MPEG-4 Visual
Профиль формата : Advanced Simple@L5
Параметр BVOP формата : 2
Параметр QPel формата : Нет
Параметр GMC формата : Без точки перехода
Параметр матрицы формата : Default (H.263)
Идентификатор кодека : XVID
Идентификатор кодека/Подсказка : XviD
Продолжительность : 1 ч. 24 м.
Битрейт : 2101 Кбит/сек
Ширина : 720 пикселей
Высота : 304 пикселя
Соотношение сторон : 2,35:1
Частота кадров : 24,000 кадра/сек
Цветовое пространство : YUV
Субдискретизация насыщенности : 4:2:0
Битовая глубина : 8 бит
Тип развёртки : Прогрессивная
Метод сжатия : С потерями
Бит/(Пиксели*Кадры) : 0.400
Размер потока : 1,23 Гбайт (84%)
Библиотека кодирования : XviD 1.2.1 (UTC 2008-12-04)

Аудио
Идентификатор : 1
Формат : AC-3
Формат/Информация : Audio Coding 3
Расширение режима : CM (complete main)
Параметр Endianness формата : Big
Идентификатор кодека : 2000
Продолжительность : 1 ч. 24 м.
Вид битрейта : Постоянный
Битрейт : 384 Кбит/сек
Каналы : 6 каналов
Расположение каналов : Front: L C R, Side: L R, LFE
Частота : 48,0 КГц
Битовая глубина : 16 бит
Метод сжатия : С потерями
Размер потока : 231 Мбайт (15%)
Выравнивание : Разделение по промежуткам
Продолжительность промежутка : 42 мс. (1,00 видеокадр)
Время предзагрузки промежутка : 500 мс.

pb.wtf



Скачать Женщины против мужчин через торрент http://pic1.kartinco.top/images/10/6dpjt.jpg Скачать фильм Женщины против мужчин через торрент бесплантно в хорошем качестве Описание: Школьная любовь трех замечательных пар заканчивается тремя прекрасными свадьбами и сумасшедшим свадебным путешествием на ... 9.8 10 58
Info! Золотая раздача, скачанное не засчитывается.
Торрент: Зарегистрирован [2015-04-28 17:58] · скачан: 2 752 раз
Статус: √ проверено
Размер: 1.46 GB
Как cкачать? Как скачать Женщины против мужчин через торрент | qTorrent

% Раздел Тема Автор DL S | L
Наши новые фильмы 2018-2019 [ 1.37 GB ] Женщины против мужчин: Крымские каникулы [2018 WEB-DLRip] bober100 Скачать
1 | 0
T Наши новые фильмы 2018-2019 [ 1.46 GB ] Женщины против мужчин: Крымские каникулы [2018 WEB-DLRip-AVC] bober100 Скачать
1 | 0
T Наши фильмы (HD, WEB-DL 720p, 1080p) [ 2.33 GB ] Женщины против мужчин: Крымские каникулы [2018 WEB-DL 720p] bober100 Скачать
2 | 0
T Наши фильмы (HD, WEB-DL 720p, 1080p) [ 2.71 GB ] Женщины против мужчин: Крымские каникулы [2018 WEB-DL 1080p] bober100 Скачать
1 | 0
Наши новые фильмы 2015 [ 1.08 GB ] Женщины против мужчин [2015 WEB-DLRip-AVC] Ворон Скачать
1 | 0
Наши фильмы (HD, WEB-DL 720p, 1080p) [ 2.47 GB ] Женщины против мужчин [2015 Россия WEB-DL 1080p) GEKADOL Скачать
1 | 0
Наши новые фильмы 2015 [ 1.37 GB ] Женщины против мужчин [2015 Россия WEBRip) GEKADOL Скачать
1 | 0

28-11-2019 20:33  

Отключить всю рекламу на сайте

28-04-2015 20:09 Женщины против мужчин Скачать торрент  

В целом очень даже не плохой фильм, не знаю почему такие плохие оценки на "КиноПоиске" посмотреть можно, особенно поймут юмор семейные пары! Не понравилась финальная сцена боя на пляже, дебилизм редкостный! Более одного раза смотреть не захочется, а на раз скоротать вечер пойдет!pb.wtf



29-04-2015 13:14 Женщины против мужчин Скачать торрент  

Да нормальный фильм ! Если под пивко, так вообще шлягер ! Советую.pb.wtf



03-05-2015 14:44 Женщины против мужчин Скачать торрент  

pb.wtf



21-05-2015 09:20 Женщины против мужчин Скачать торрент  

прикольный фильмpb.wtf



28-07-2015 17:20 Женщины против мужчин Скачать торрент  

Отличный фильм. Советую глянуть.pb.wtf



    Дорогой пользователь! Огромная просьба, поблагодарите релизера, оцените раздачу и оставьте свои комментарий, если Вы скачали Женщины против мужчин через торрент бесплатно! Внесите свою лепту в развитие PiratBit!
    Комментировать посты могут только пользователи прошедшие не сложную регистрацию
    Показать сообщения:    

    Женщины против мужчин через торрент
    Скачать бесплатно Женщины против мужчин
    Женщины против мужчин скачать торрент
    Женщины против мужчин смотреть онлайн
    Cкачать фильм Женщины против мужчин бесплатно
    Женщины против мужчин скачать торрент в хорошем качестве
    Женщины против мужчин смотреть онлайн бесплатно в хорошем качестве


    Вы не можете начинать темы
    Вы не можете отвечать на сообщения
    Вы не можете редактировать свои сообщения
    Вы не можете удалять свои сообщения
    Вы не можете голосовать в опросах
    Вы не можете прикреплять файлы к сообщениям
    Вы можете скачивать файлы