новый адрес пиратбит piratbit
Мега распродажа FORZA HORIZON 4 ULTIMATE+ВСЕ DLC+ОНЛАЙН всего за 499р. 349 руб. (супер цена). Внимание количество ограничено!!!

iTunes

1+1

iTunes

мы

iTunes

1

iTunes

Чернобыль

iTunes

Ральф против интернета

Лицензия

ПШазам

Лицензия

Игра престолов

Лицензия

30
pack

ВАЖНО

!!Акция!!

Alien_RageХит недели

RePack

Resident Evil 21

ИГРА 18+

pack

RePack

Metro:Exodus

!!Акция!!

Alien_Rage

RePack

fifa19

RePack

Assassins Creed: Odyssey

RePack

NEED FOR SPEED™ PAYBACK

3 сезон

9 сезон

Бесстыжие 9 сезон

Все сериалы

все сериалы на PB.wtf

RePack

FAR CRY 5
Ребята, катастрофически не хватает 1900р. для оплаты серверов за Октябрь (всвязи с блокировками трафик упал в 3 раза), 1-2р., выручайте.
  

Кавказская пленница, или Новые приключения Шурика (Леонид Гайдай) [1966, СССР, мелодрама, комедия, приключения, HDRip-AVC,] От R.G. PiratFilms pb.wtf

Кавказская пленница, или Новые приключения Шурика через торрент pb.wtf

Размер: 2.87 GB | Добавлен: 4 года 6 мес. назад | Торрент скачан:75 раз
Скачать  

29-04-2015 10:25 Кавказская пленница, или Новые приключения Шурика Скачать торрент  




Кавказская пленница, или Новые приключения Шурика


Год выпуска: 1966
Страна: СССР
Жанр: мелодрама, комедия, приключения, семейный, музыка

Продолжительность: 01:19:53
Перевод: Не требуется
Субтитры: Нет
Режиссер: Леонид Гайдай
В ролях:

Александр Демьяненко (Шурик), Наталья Варлей (Нина), Юрий Никулин (Балбес), Георгий Вицин (Трус), Евгений Моргунов (Бывалый), Владимир Этуш (товарищ Саахов), Фрунзик Мкртчян (Джабраил), Руслан Ахметов (Эдик), Нина Гребешкова (доктор), Михаил Глузский (администратор гостиницы), Георгий Милляр (гостеприимный хозяин с рогом), Эммануил Геллер (торговец на рынке)
Описание:
Отправившись в одну из горных республик собирать фольклор, герой фильма Шурик влюбляется в симпатичную девушку - «спортсменку, отличницу, и просто красавицу». Но ее неожиданно похищают, чтобы насильно выдать замуж.
Наивный Шурик не сразу смог сообразить, что творится у него под носом, - однако затем отважно ринулся освобождать «кавказскую пленницу»...
Мировая премьера: 1 апреля 1967
    Качество: HDRip-AVC (исх. BDRip 1080р)
    Формат: MKV
    Видео кодек: AVC
    Аудио кодек:AC3
    Видео: AVC, 1024x744 (1.376), 4763 kbps, 23,976 fps, 0,261 bpp
    Аудио: русский / AC3 / 5.1 / 48 kHz / 448 kbps / 16 bit ||


Код:

---[Information] [29.04.2015 5:57:43] x264 [info]: frame P:24217 Avg QP:19.41  size: 55917  PSNR Mean Y:43.06 U:48.55 V:48.35 Avg:44.22 Global:44.01
---[Information] [29.04.2015 5:57:43] x264 [info]: frame B:89967 Avg QP:21.93  size: 15398  PSNR Mean Y:42.15 U:48.47 V:48.20 Avg:43.40 Global:43.16
---[Information] [29.04.2015 5:57:43] x264 [info]: consecutive B-frames:  1.5%  1.8%  4.2% 24.1% 17.9% 46.9%  2.5%  0.8%  0.2%  0.1%  0.1%

Код:

Общее
Уникальный идентификатор                 : 198300648176294037380110600488422772883 (0x952F50CD38615505B723B0A4F3FC9093)
Полное имя                               : D:\рипы От R.G. PiratFilms\Кавказская пленница, или Новые приключения Шурика.HDRip-AVC.by.White Smoke.R.G.PiratFilms.mkv
Формат                                   : Matroska
Версия формата                           : Version 4 / Version 2
Размер файла                             : 2,87 Гбайт
Продолжительность                        : 1 ч. 19 м.
Общий поток                              : 5149 Кбит/сек
Дата кодирования                         : UTC 2015-04-29 14:50:06
Программа кодирования                    : mkvmerge v7.6.0 ('Garden of Dreams') 64bit built on Feb  8 2015 13:04:34
Библиотека кодирования                   : libebml v1.3.1 + libmatroska v1.4.2
_STATISTICS_WRITING_APP                  : mkvmerge v7.6.0 ('Garden of Dreams') 64bit built on Feb  8 2015 13:04:34
_STATISTICS_WRITING_DATE_UTC             : 2015-04-29 14:50:06
_STATISTICS_TAGS                         : BPS DURATION NUMBER_OF_FRAMES NUMBER_OF_BYTES
DURATION                                 : 01:19:53.184000000
NUMBER_OF_FRAMES                         : 149787
NUMBER_OF_BYTES                          : 230072832

Видео
Идентификатор                            : 1
Формат                                   : AVC
Формат/Информация                        : Advanced Video Codec
Профиль формата                          : High@L4.1
Параметр CABAC формата                   : Да
Параметр ReFrames формата                : 10 кадров
Идентификатор кодека                     : V_MPEG4/ISO/AVC
Продолжительность                        : 1 ч. 19 м.
Битрейт                                  : 4763 Кбит/сек
Ширина                                   : 1024 пикселя
Высота                                   : 744 пикселя
Соотношение сторон                       : 1,376
Режим частоты кадров                     : Постоянный
Частота кадров                           : 23,976 кадра/сек
Цветовое пространство                    : YUV
Субдискретизация насыщенности            : 4:2:0
Битовая глубина                          : 8 бит
Тип развёртки                            : Прогрессивная
Бит/(Пиксели*Кадры)                      : 0.261
Размер потока                            : 2,60 Гбайт (91%)
Библиотека кодирования                   : x264 core 146 r2538 121396c
Настройки программы                      : cabac=1 / ref=10 / deblock=1:-3:-3 / analyse=0x3:0x113 / me=umh / subme=9 / psy=1 / psy_rd=1.00:0.00 / mixed_ref=1 / me_range=32 / chroma_me=1 / trellis=1 / 8x8dct=1 / cqm=0 / deadzone=21,11 / fast_pskip=1 / chroma_qp_offset=-2 / threads=6 / lookahead_threads=1 / sliced_threads=0 / nr=0 / decimate=1 / interlaced=0 / bluray_compat=0 / constrained_intra=0 / bframes=10 / b_pyramid=2 / b_adapt=2 / b_bias=10 / direct=1 / weightb=0 / open_gop=0 / weightp=2 / keyint=240 / keyint_min=23 / scenecut=40 / intra_refresh=0 / rc_lookahead=40 / rc=2pass / mbtree=1 / bitrate=4763 / ratetol=1.0 / qcomp=0.65 / qpmin=0 / qpmax=69 / qpstep=4 / cplxblur=20.0 / qblur=0.5 / ip_ratio=1.40 / aq=1:1.00
Язык                                     : English
Default                                  : Да
Forced                                   : Нет
DURATION                                 : 01:19:53.205000000
NUMBER_OF_FRAMES                         : 114922
NUMBER_OF_BYTES                          : 2854004506
_STATISTICS_WRITING_APP                  : mkvmerge v7.6.0 ('Garden of Dreams') 64bit built on Feb  8 2015 13:04:34
_STATISTICS_WRITING_DATE_UTC             : 2015-04-29 14:50:06
_STATISTICS_TAGS                         : BPS DURATION NUMBER_OF_FRAMES NUMBER_OF_BYTES

Аудио
Идентификатор                            : 2
Формат                                   : AC-3
Формат/Информация                        : Audio Coding 3
Расширение режима                        : CM (complete main)
Параметр Endianness формата              : Big
Идентификатор кодека                     : A_AC3
Продолжительность                        : 1 ч. 19 м.
Вид битрейта                             : Постоянный
Битрейт                                  : 384 Кбит/сек
Каналы                                   : 6 каналов
Расположение каналов                     : Front: L C R, Side: L R, LFE
Частота                                  : 48,0 КГц
Битовая глубина                          : 16 бит
Метод сжатия                             : С потерями
Размер потока                            : 219 Мбайт (7%)
Default                                  : Да
Forced                                   : Нет


Скриншоты:
pb.wtf
KWhite Smoke писал(а):

Проблема звука исправлена



Скачать Кавказская пленница, или Новые приключения Шурика через торрент http://i5.imageban.ru/out/2015/01/28/01859fe8d4e21166f16a4c733dadb0aa.gif Скачать фильм Кавказская пленница, или Новые приключения Шурика через торрент бесплантно в хорошем качестве Описание: Отправившись в одну из горных республик собирать фольклор, герой фильма Шурик влюбляется в симпатичную девушку - «спортсменку, ... 9.5 10 21
Info! Золотая раздача, скачанное не засчитывается.
Торрент: Зарегистрирован [2015-04-29 15:11] · скачан: 75 раз
Статус: √ проверено
Размер: 2.87 GB
Как cкачать? Как скачать Кавказская пленница, или Новые приключения Шурика через торрент | qTorrent



Последний раз редактировалось: White Smoke (2015-04-29 15:10), всего редактировалось 1 раз


>> Регистрируемся здесь <<






Отзывы и комментарии о схеме читаем и пишем здесь: ---> Отзывы и комментарии о схеме

Новые благодарочки в телеграм довольных пользователей:
скриншот   скриншот   скриншот   скриншот   скриншот

29-04-2015 11:57 Кавказская пленница, или Новые приключения Шурика Скачать торрент  

Что стоит качать? Этот старый фильм или новую Кавказкую пленницу?.pb.wtf
KWhite Smoke писал(а):

На год выпуска посмотрите



29-04-2015 12:20 Кавказская пленница, или Новые приключения Шурика Скачать торрент  

раздавать будем? сори пошло.pb.wtf



29-04-2015 12:34 Кавказская пленница, или Новые приключения Шурика Скачать торрент  

что со звукомpb.wtf



29-04-2015 13:14 Кавказская пленница, или Новые приключения Шурика Скачать торрент  

Severynin322 писал(а):

Что стоит качать? Этот старый фильм или новую Кавказкую пленницу?.

Новая кавказская пленница и в подметки не годится старой, однозначно старая.pb.wtf



29-04-2015 13:34 Кавказская пленница, или Новые приключения Шурика Скачать торрент  

Хорошая советская комедия. Можно периодически смотретьpb.wtf



29-04-2015 14:29 Кавказская пленница, или Новые приключения Шурика Скачать торрент  

Звук отстаёт примерно на 1мин.20сек.!pb.wtf





Последний раз редактировалось: praslik (2015-04-30 15:59), всего редактировалось 1 раз

29-04-2015 15:20 Кавказская пленница, или Новые приключения Шурика Скачать торрент  

Классика! фильм на века)=pb.wtf



30-04-2015 17:07 Кавказская пленница, или Новые приключения Шурика Скачать торрент  

no ГА ВНО!!!! еще то!!!pb.wtf



30-04-2015 17:41 Кавказская пленница, или Новые приключения Шурика Скачать торрент  

Офигенное качество! Автор а можно такого же кач-ва только в 16:9, очень надо! Плизззз...!pb.wtf



    Дорогой пользователь! Огромная просьба, поблагодарите релизера, оцените раздачу и оставьте свои комментарий, если Вы скачали Кавказская пленница, или Новые приключения Шурика через торрент бесплатно! Внесите свою лепту в развитие PiratBit!
    Комментировать посты могут только пользователи прошедшие не сложную регистрацию
    Показать сообщения:    

    Кавказская пленница, или Новые приключения Шурика через торрент
    Скачать бесплатно Кавказская пленница, или Новые приключения Шурика
    Кавказская пленница, или Новые приключения Шурика скачать торрент
    Кавказская пленница, или Новые приключения Шурика смотреть онлайн
    Cкачать фильм Кавказская пленница, или Новые приключения Шурика бесплатно
    Кавказская пленница, или Новые приключения Шурика скачать торрент в хорошем качестве
    Кавказская пленница, или Новые приключения Шурика смотреть онлайн бесплатно в хорошем качестве


    Вы не можете начинать темы
    Вы не можете отвечать на сообщения
    Вы не можете редактировать свои сообщения
    Вы не можете удалять свои сообщения
    Вы не можете голосовать в опросах
    Вы не можете прикреплять файлы к сообщениям
    Вы можете скачивать файлы