Доктор Стрэндж

Лицензия

Добыча

Дубляж

Уэнсдэй

1 сезон

Тор

Дубляж

В эфире

Дубляж

Там, где раки поют

MVO

Властелин колец

1 сезон

Deluxe

pack

Рекомендуем

30

Пиратка

ВАЖНО

ВАЖНО

Ghostwire

Пиратка

jed

RePack

nioh2

RePack

RDR2

RePack

NEED FOR SPEED™ PAYBACK

RePack

скачать торрент

Кинопоиск HD

Острые козырьки 6 сезон

6 сезон

FAR CRY 6

RePack

скачать торрент

Лицензия

скачать торрент

MVO

1

1 сезон

скачать торрент

1 сезон

скачать торрент

Лицензия

  

Тонкий лёд / The Convincer (Джилл Шпрехер) [2011, драма, комедия, криминал, BDRip 1080p] MVO

Тонкий лёд через торрент pb.wtf

Размер: 9.93 GB | Добавлен: 7 лет 7 мес. назад | Торрент скачан:70 раз
Смотреть онлайн | Скачать   

30-04-2015 07:22 Тонкий лёд Скачать торрент  


Название: Тонкий лёд
Оригинальное название: The Convincer
Год выпуска: 2011
Страна: США
Жанр: драма, комедия, криминал
Продолжительность: 01:33:23
Перевод: профессиональный многоголосый

Режиссёр: Джилл Шпрехер

В ролях: Грег Киннер, Билли Крадап, Алан Аркин, Джон Пол, Гамоук Дэвид, Харбор Дженнифер, Эдвардс-Хьюз, Скотт Крауч, Питер Мур, Мишель Хатчинсон

Описание: Главный герой истории - отчаявшийся сотрудник страховой компании, замысливший аферу, цель которой завладеть редкой коллекционной скрипкой работы знаменитого мастера. Затея героя приводит к непредсказуемым и опасным последствиям...



Качество: BDRip 1080p Сравнение с исходником
Формат: MKV
Видео кодек: H.264
Аудио кодек: AC3, DTS
Видео: MPEG-4 AVC, 13 Mбит/с, 1920х818, 23,976 кадра/с
Аудио 1: русский, AC3, 384 kbps, 6 ch, 48 kHz [профессиональный многоголосый]
Аудио 2: английский, DTS, 1509 kbps, 6 ch, 48 kHz [оригинал]
Субтитры 1: русские
Субтитры 2: английские (для слабослышащих)
frame I:1045 Avg QP:17.71 size:244115
frame P:24765 Avg QP:18.50 size:123660
frame B:108542 Avg QP:20.54 size: 55399

Общее
Уникальный идентификатор : 187268753233325818742985124561380920853 (0x8CE2A6631FC03B938851DAD508B74E15)
Полное имя : D:VideoТонкий лёд.2011.BDRip.1080p.mkv
Формат : Matroska
Версия формата : Version 4 / Version 2
Размер файла : 9,93 Гбайт
Продолжительность : 1 ч. 33 м.
Общий поток : 15,2 Мбит/сек
Название фильма : BDRip -- STarankov
Дата кодирования : UTC 2015-04-30 02:41:43
Программа кодирования : mkvmerge v7.8.0 ('River Man') 64bit built on Mar 27 2015 16:31:37
Библиотека кодирования : libebml v1.3.1 + libmatroska v1.4.2
_STATISTICS_WRITING_APP : mkvmerge v7.8.0 ('River Man') 64bit built on Mar 27 2015 16:31:37
_STATISTICS_WRITING_DATE_UTC : 2015-04-30 02:41:43
_STATISTICS_TAGS : BPS DURATION NUMBER_OF_FRAMES NUMBER_OF_BYTES
DURATION : 01:33:23.606000000
NUMBER_OF_FRAMES : 525338
NUMBER_OF_BYTES : 1056981088

Видео
Идентификатор : 1
Формат : AVC
Формат/Информация : Advanced Video Codec
Профиль формата : [email protected]
Параметр CABAC формата : Да
Параметр ReFrames формата : 4 кадра
Идентификатор кодека : V_MPEG4/ISO/AVC
Продолжительность : 1 ч. 33 м.
Битрейт : 13,0 Мбит/сек
Ширина : 1920 пикселей
Высота : 818 пикселей
Соотношение сторон : 2,35:1
Режим частоты кадров : Постоянный
Частота кадров : 23,976 кадра/сек
Цветовое пространство : YUV
Субдискретизация насыщенности : 4:2:0
Битовая глубина : 8 бит
Тип развёртки : Прогрессивная
Бит/(Пиксели*Кадры) : 0.346
Размер потока : 8,49 Гбайт (86%)
Библиотека кодирования : x264 core 146 r2538 121396c
Настройки программы : cabac=1 / ref=4 / deblock=1:-1:-1 / analyse=0x3:0x113 / me=umh / subme=10 / psy=1 / psy_rd=1.00:0.15 / mixed_ref=1 / me_range=32 / chroma_me=1 / trellis=2 / 8x8dct=1 / cqm=0 / deadzone=21,11 / fast_pskip=1 / chroma_qp_offset=-3 / threads=6 / lookahead_threads=1 / sliced_threads=0 / nr=0 / decimate=1 / interlaced=0 / bluray_compat=0 / constrained_intra=0 / bframes=8 / b_pyramid=2 / b_adapt=2 / b_bias=0 / direct=1 / weightb=1 / open_gop=0 / weightp=2 / keyint=230 / keyint_min=23 / scenecut=40 / intra_refresh=0 / rc_lookahead=40 / rc=crf / mbtree=0 / crf=18.8 / qcomp=0.60 / qpmin=0 / qpmax=69 / qpstep=4 / vbv_maxrate=40000 / vbv_bufsize=50000 / crf_max=0.0 / nal_hrd=none / filler=0 / ip_ratio=1.40 / pb_ratio=1.30 / aq=1:1.00
Язык : English
Default : Да
Forced : Нет
DURATION : 01:33:23.598000000
NUMBER_OF_FRAMES : 134352
NUMBER_OF_BYTES : 9330651138
_STATISTICS_WRITING_APP : mkvmerge v7.8.0 ('River Man') 64bit built on Mar 27 2015 16:31:37
_STATISTICS_WRITING_DATE_UTC : 2015-04-30 02:41:43
_STATISTICS_TAGS : BPS DURATION NUMBER_OF_FRAMES NUMBER_OF_BYTES

Аудио #1
Идентификатор : 2
Формат : AC-3
Формат/Информация : Audio Coding 3
Расширение режима : CM (complete main)
Параметр Endianness формата : Big
Идентификатор кодека : A_AC3
Продолжительность : 1 ч. 33 м.
Вид битрейта : Постоянный
Битрейт : 384 Кбит/сек
Каналы : 6 каналов
Расположение каналов : Front: L C R, Side: L R, LFE
Частота : 48,0 КГц
Битовая глубина : 16 бит
Метод сжатия : С потерями
Размер потока : 257 Мбайт (3%)
Заголовок : MVO
Язык : Russian
Default : Да
Forced : Нет

Аудио #2
Идентификатор : 3
Формат : DTS
Формат/Информация : Digital Theater Systems
Режим : 16
Параметр Endianness формата : Big
Идентификатор кодека : A_DTS
Продолжительность : 1 ч. 33 м.
Вид битрейта : Постоянный
Битрейт : 1509 Кбит/сек
Каналы : 6 каналов
Расположение каналов : Front: L C R, Side: L R, LFE
Частота : 48,0 КГц
Битовая глубина : 24 бит
Метод сжатия : С потерями
Размер потока : 1008 Мбайт (10%)
Заголовок : Original
Язык : English
Default : Нет
Forced : Нет

Текст #1
Идентификатор : 4
Формат : UTF-8
Идентификатор кодека : S_TEXT/UTF8
Идентификатор кодека/Информация : UTF-8 Plain Text
Заголовок : русские
Язык : Russian
Default : Нет
Forced : Нет

Текст #2
Идентификатор : 5
Формат : UTF-8
Идентификатор кодека : S_TEXT/UTF8
Идентификатор кодека/Информация : UTF-8 Plain Text
Заголовок : английские (для слабослышащих)
Default : Нет
Forced : Нет



Скачать Тонкий лёд через торрент http://i57.fastpic.ru/big/2015/0428/f4/dccf30b52465cb0c4347604fd397cff4.jpg Скачать, смотреть онлайн Тонкий лёд бесплантно в хорошем качестве Описание: Главный герой истории - отчаявшийся сотрудник страховой компании, замысливший аферу, цель которой завладеть редкой коллекционной ... 10 10 2
Торрент: Зарегистрирован [2015-04-30 07:22] · скачан: 70 раз
Статус: √ проверено
Размер: 9.93 GB
Как cкачать? Как скачать Тонкий лёд через торрент | UTorrent

% Раздел Тема Автор DL S | L
Фильмы [HD 720p, 1080p] (Хороший звук DUB, MVO) [ 3.31 GB ] Тонкий лёд / The Convincer | MVO | 720p msltel Скачать
1 | 0
Фильмы 2011 [ 1.95 GB ] Тонкий лёд / The Convincer | MVO | BDRip AVC msltel Скачать
1 | 0

28-11-2019 20:33  


Отключить вcю реклaмy на сайте, в т.ч. и в плеере онлайн просмотра!

    Дорогой пользователь! Огромная просьба, поблагодарите релизера, оцените раздачу и оставьте свои комментарий, если Вы скачали Тонкий лёд через торрент бесплатно!!
    Комментировать посты могут только пользователи прошедшие не сложную регистрацию
    Показать сообщения:    


    Тонкий лёд через торрент
    Скачать бесплатно Тонкий лёд
    Тонкий лёд скачать торрент
    Тонкий лёд смотреть онлайн
    Cкачать фильм Тонкий лёд бесплатно
    Тонкий лёд скачать торрент в хорошем качестве
    Тонкий лёд смотреть онлайн бесплатно в хорошем качестве
    Вы не можете начинать темы
    Вы не можете отвечать на сообщения
    Вы не можете редактировать свои сообщения
    Вы не можете удалять свои сообщения
    Вы не можете голосовать в опросах
    Вы не можете прикреплять файлы к сообщениям
    Вы можете скачивать файлы
    Тонкий лёд / The Convincer [2011, драма, комедия, криминал, BDRip 1080p] MVO смотреть онлайн, скачать торрент picoco.icu