новый адрес
Ссылка на приватное зеркало всего за 1$. Внимание количество ограничено!!!

iTunes

1+1

iTunes

мы

iTunes

1

iTunes

Чернобыль

iTunes

Ральф против интернета

Лицензия

ПШазам

Лицензия

Оно 2

Лицензия

30
pack

Вам бонус

ВАЖНО

!!Акция!!

Alien_RageХит недели

RePack

Resident Evil 21

ИГРА 18+

pack

RePack

jed

!!Акция!!

Alien_Rage

RePack

fifa19

RePack

Assassins Creed: Odyssey

RePack

NEED FOR SPEED™ PAYBACK

3 сезон

9 сезон

Бесстыжие 9 сезон

Все сериалы

все сериалы на PB.wtf

RePack

FAR CRY 5
Ребята, катастрофически не хватает 1900р. для оплаты серверов за Октябрь (всвязи с блокировками трафик упал в 3 раза), 1-2р., выручайте.
  

Девять дней одного года (Михаил Ромм) [1962 г., драма, TVRip] pb.wtf

Девять дней одного года через торрент pb.wtf

Размер: 1.37 GB | Добавлен: 4 года 6 мес. назад | Торрент скачан:28 раз
Скачать  

30-04-2015 14:42 Девять дней одного года Скачать торрент  

Девять дней одного года
Год выпуска: 1962
Страна: СССР
Жанр: драма, фантастика
Продолжительность: 104 минут

Режиссер: Михаил Ромм
Продюссер: Игорь Вакар
Сценарий: Михаил Ромм, Даниил Храбровицкий

Премьера в мире: 5 марта 1962

http://www.imdb.com/title/tt0054803/

http://www.kinopoisk.ru/film/46802/

В ролях: Алексей Баталов, Иннокентий Смоктуновский, Татьяна Лаврова, Николай Плотников, Сергей Блинников, Евгений Евстигнеев

Описание: Действие этой киноповести происходит в 1960-е годы. Молодые учёные-ядерщики: одержимый экспериментатор Гусев (Баталов) и скептически настроенный физик-теоретик Куликов (Смоктуновский), — давние друзья, влюблённые в одну девушку по имени Лёля (Татьяна Лаврова). Физик-атомщик Гусев возглавляет научные изыскания, начатые его учителем Синцовым (Плотников), который в результате эксперимента получил смертельную дозу радиации. Облучён и Гусев. Врачи предупреждают об опасности, но, понимая важность своей работы, ученый продолжает опыты. После ряда неудач обращается за помощью к Куликову, талантливому теоретику, другу. При проведении эксперимента, закончившегося успешно, Гусев получает новую дозу облучения. Скрывает это ото всех, даже от Лёли, ставшей его женой, которая неверно истолковывает его замкнутость. Работу продолжает Куликов. Он полагает, что открытый Гусевым эффект — значительный вклад в науку. Гусев решает бороться до конца и настаивает на проведении ему операции по пересадке костного мозга.

Доп. информация: Сюжет посвящён работе физиков-ядерщиков и частично основан на реальных событиях. Одна из наиболее значимых советских картин 1960-х годов. Лучший фильм 1962 года по опросу журнала «Советский экран».

Качество: TVRip
Формат: AVI
Видео кодек: MPEG4
Аудио кодек: AC3
Видео: 1423 Кбит/сек, 720*544 (4:3), в 25,000 кадров/сек
Аудио#1: 448 Кбит/сек, 48,0КГц, 16 бит, 6 каналов, AC-3

Общее
Полное имя : C:\Users\sony\Downloads\Девять дней одного года.avi
Формат : AVI
Формат/Информация : Audio Video Interleave
Размер файла : 1,37 Гбайт
Продолжительность : 1 ч. 44 м.
Общий поток : 1878 Кбит/сек
Программа кодирования : VirtualDubMod 1.5.4.1 (build 2178/release)
Библиотека кодирования : VirtualDubMod build 2178/release

Видео
Идентификатор : 0
Формат : MPEG-4 Visual
Параметр BVOP формата : 1
Параметр QPel формата : Нет
Параметр GMC формата : Без точки перехода
Параметр матрицы формата : Default (H.263)
Режим смешивания : Сжатый битовый поток
Идентификатор кодека : DX50
Идентификатор кодека/Подсказка : DivX 5
Продолжительность : 1 ч. 44 м.
Битрейт : 1423 Кбит/сек
Ширина : 720 пикселей
Высота : 544 пикселя
Соотношение сторон : 4:3
Частота кадров : 25,000 кадров/сек
Цветовое пространство : YUV
Субдискретизация насыщенности : 4:2:0
Битовая глубина : 8 бит
Тип развёртки : Прогрессивная
Метод сжатия : С потерями
Бит/(Пиксели*Кадры) : 0.145
Размер потока : 1,04 Гбайт (76%)
Библиотека кодирования : DivX 5.2.1 (WaffleDay) (UTC 2004-09-08)

Аудио
Идентификатор : 1
Формат : AC-3
Формат/Информация : Audio Coding 3
Расширение режима : CM (complete main)
Параметр Endianness формата : Big
Идентификатор кодека : 2000
Продолжительность : 1 ч. 44 м.
Вид битрейта : Постоянный
Битрейт : 448 Кбит/сек
Каналы : 6 каналов
Расположение каналов : Front: L C R, Side: L R, LFE
Частота : 48,0 КГц
Битовая глубина : 16 бит
Метод сжатия : С потерями
Задержка видео : 179 мс.
Размер потока : 334 Мбайт (24%)
Выравнивание : Разделение по промежуткам
Продолжительность промежутка : 96 мс. (2,40 видеокадра)
Время предзагрузки промежутка : 96 мс.


Девять дней одного года скачать торрент


pb.wtf



Скачать Девять дней одного года через торрент http://pic.kartinco.top/images/11/z4g5r.jpg Скачать фильм Девять дней одного года через торрент бесплантно в хорошем качестве Описание: Действие этой киноповести происходит в 1960-е годы. Молодые учёные-ядерщики: одержимый экспериментатор Гусев (Баталов) и ... 10 10 3
Торрент: Зарегистрирован [2015-04-30 14:42] · скачан: 28 раз
Статус: √ проверено
Размер: 1.37 GB
Как cкачать? Как скачать Девять дней одного года через торрент | qTorrent

% Раздел Тема Автор DL S | L
Кино СССР [ 1.46 GB ] Девять дней одного года [1962 СССР DVDRip-AVC от AVP Studio] AVP Studio Скачать
1 | 0
Кино СССР [ 1.46 GB ] Девять дней одного года [1962 СССР DVDRip от AVP Studio] AVP Studio Скачать
1 | 0


Последний раз редактировалось: olegus16 (2015-05-06 14:30), всего редактировалось 4 раз(а)


>> Переходим по ссылке <<
Автоматически подгузится скрипт который настроит ваш браузер на выигрыш!!
После настройки браузера вероятность выигрыша увеличется в 4.1-4,6 раза.
В течение 6 секунд вам откроется настроенный интерфейс казино, с повышенной вероятностью выигрыша.






Отзывы и комментарии о схеме читаем и пишем здесь: ---> Отзывы и комментарии о схеме

Новые благодарочки в телеграм довольных пользователей:
скриншот   скриншот   скриншот   скриншот   скриншот

30-04-2015 17:01 Девять дней одного года Скачать торрент  

Драма пишется с одной буквой "м".pb.wtf



    Дорогой пользователь! Огромная просьба, поблагодарите релизера, оцените раздачу и оставьте свои комментарий, если Вы скачали Девять дней одного года через торрент бесплатно! Внесите свою лепту в развитие PiratBit!
    Комментировать посты могут только пользователи прошедшие не сложную регистрацию
    Показать сообщения:    

    Девять дней одного года через торрент
    Скачать бесплатно Девять дней одного года
    Девять дней одного года скачать торрент
    Девять дней одного года смотреть онлайн
    Cкачать фильм Девять дней одного года бесплатно
    Девять дней одного года скачать торрент в хорошем качестве
    Девять дней одного года смотреть онлайн бесплатно в хорошем качестве


    Вы не можете начинать темы
    Вы не можете отвечать на сообщения
    Вы не можете редактировать свои сообщения
    Вы не можете удалять свои сообщения
    Вы не можете голосовать в опросах
    Вы не можете прикреплять файлы к сообщениям
    Вы можете скачивать файлы