Ссылка на приватное зеркало нашего сайта всего за 1$. Внимание количество ограничено!!!

2 сезон

iTunes

1 сезон

1

iTunes

iTunes

iTunes

1 сезон

RePack

30

ИГРА 18+

pack

ВАЖНО

!!Акция!!

Alien_RageХит недели

RePack

MK11
pack

Забери бонус

RePack

jed

!!Акция!!

Alien_Rage

RePack

fifa19

RePack

Assassins Creed: Odyssey

RePack

NEED FOR SPEED™ PAYBACK

4 сезон

9 сезон

Бесстыжие 9 сезон

Все сериалы

все сериалы на PB.wtf

RePack

FAR CRY 5
  

Офицерские жены / 1 сезон / (1-12 серии из 12) [2014 г., Драма, Семейный, WEB-DLRip-AVC] pb.wtf

Офицерские жены через торрент pb.wtf

Размер: 6.46 GB | Добавлен: 5 лет 5 мес. назад | Торрент скачан:414 раз
Скачать  

30-04-2015 22:40 Офицерские жены Скачать торрент  

Офицерские женыГод выпуска: 2014
Страна: Россия, Украина, Star Media
Жанр: Драма, Семейный
Продолжительность: 12 х ~00:43:00 серия
Субтитры: нет

Режиссер: Дмитрий Петрунь

В ролях: Константин Милованов, Мария Порошина, Ольга Арнтгольц, Павел Делонг, Виктор Хориняк, Юрий Борисов (II), Анастасия Лукьянова, Ольга Макеева, Анна Арефьева, Игорь Писный, Данила Краснощек, Валентин Касьян, Виталий Салий, Инга Нагорная, Роман Курцын, Ольга Олексий, Юлия Паничкина, Ольга Гришина

Описание: Семейная сага рассказывает о судьбе нескольких поколений женщин семьи Антоновых-Тереховых, а также их ближайшего окружения. В каждом поколении есть героиня по имени Надежда. Временной охват — с 40-х годов 20 века по 2002-й год. В фильме освещены важные для страны и для военных события — репрессии, вторая мировая, Афганистан, участие армии в ликвидации последствий Чернобыльской аварии, межвременье начала 90-х, развал СССР, падение престижа военной службы…
… И все-таки ещё одна Надежда (четвертая, дочка Лены Тереховой) захочет связать свою судьбу с военным, и тоже будет офицерской женой…

Качество: WEB-DLRip-AVC
Формат: MKV
Видео кодек: H.264
Аудио кодек: AC3
Видео: MPEG-4 AVC, 1024х576,25fps,1500 Кбит/сек,Bits/Pixel 0.102
Аудио#1: AC3, 48 kHz, ~192 Kbps, 2 канала
скриншот   скриншот   скриншот   скриншот   скриншот   скриншот  

Общее
Уникальный идентификатор : 203915509328911027093088035459599835108 (0x9968B2D471E740AF8EBC97C3724A1FE4)
Полное имя : G:\Офицерские жены\01 серия.mkv
Формат : Matroska
Версия формата : Version 2
Размер файла : 551 Мбайт
Продолжительность : 45 м.
Общий поток : 1694 Кбит/сек
Дата кодирования : UTC 2015-04-27 04:44:50
Программа кодирования : mkvmerge v7.8.0 ('River Man') 32bit built on Apr 3 2015 12:11:22
Библиотека кодирования : libebml v1.3.1 + libmatroska v1.4.2

Видео
Идентификатор : 1
Формат : AVC
Формат/Информация : Advanced Video Codec
Профиль формата : High@L3.1
Параметр CABAC формата : Да
Параметр ReFrames формата : 9 кадров
Идентификатор кодека : V_MPEG4/ISO/AVC
Продолжительность : 45 м.
Битрейт : 1500 Кбит/сек
Ширина : 1024 пикселя
Высота : 576 пикселей
Соотношение сторон : 16:9
Режим частоты кадров : Постоянный
Частота кадров : 25,000 кадров/сек
Цветовое пространство : YUV
Субдискретизация насыщенности : 4:2:0
Битовая глубина : 8 бит
Тип развёртки : Прогрессивная
Бит/(Пиксели*Кадры) : 0.102
Размер потока : 478 Мбайт (87%)
Библиотека кодирования : x264 core 146 r2538 121396c
Настройки программы : cabac=1 / ref=9 / deblock=1:-3:-3 / analyse=0x3:0x133 / me=umh / subme=9 / psy=1 / psy_rd=1.00:0.20 / mixed_ref=1 / me_range=32 / chroma_me=0 / trellis=2 / 8x8dct=1 / cqm=0 / deadzone=21,11 / fast_pskip=1 / chroma_qp_offset=-3 / threads=4 / lookahead_threads=4 / sliced_threads=0 / nr=0 / decimate=0 / interlaced=0 / bluray_compat=0 / constrained_intra=0 / bframes=9 / b_pyramid=2 / b_adapt=1 / b_bias=0 / direct=1 / weightb=1 / open_gop=0 / weightp=2 / keyint=240 / keyint_min=24 / scenecut=40 / intra_refresh=0 / rc_lookahead=40 / rc=2pass / mbtree=1 / bitrate=1500 / ratetol=1.0 / qcomp=0.60 / qpmin=0 / qpmax=69 / qpstep=4 / cplxblur=20.0 / qblur=0.5 / ip_ratio=1.40 / aq=1:1.00
Default : Да
Forced : Нет
Основные цвета : BT.709
Характеристики трансфера : BT.709
Коэффициенты матрицы : BT.709
colour_range : Limited

Аудио
Идентификатор : 2
Формат : AC-3
Формат/Информация : Audio Coding 3
Расширение режима : CM (complete main)
Параметр Endianness формата : Big
Идентификатор кодека : A_AC3
Продолжительность : 45 м.
Вид битрейта : Постоянный
Битрейт : 192 Кбит/сек
Каналы : 2 канала
Расположение каналов : Front: L R
Частота : 48,0 КГц
Битовая глубина : 16 бит
Метод сжатия : С потерями
Размер потока : 62,5 Мбайт (11%)
Default : Да
Forced : Нет
Добавлена 11-12 серия.pb.wtf



Скачать Офицерские жены через торрент http://pic.kartinco.top/images/11/ovdwc.jpg Скачать фильм Офицерские жены через торрент бесплантно в хорошем качестве Описание: Семейная сага рассказывает о судьбе нескольких поколений женщин семьи Антоновых-Тереховых, а также их ближайшего окружения. В ... 9.2 10 24
Info! Золотая раздача, скачанное не засчитывается.
Торрент: Зарегистрирован [2015-05-09 10:22] · скачан: 414 раз
Статус: √ проверено
Размер: 6.46 GB
Как cкачать? Как скачать Офицерские жены через торрент | qTorrent



Последний раз редактировалось: aleksan55 (2015-05-09 10:22), всего редактировалось 8 раз(а)

28-11-2019 20:33  

Отключить всю рекламу на сайте

01-05-2015 14:38 Офицерские жены Скачать торрент  

сколько всего серийpb.wtf



01-05-2015 19:27 Офицерские жены Скачать торрент  

DAVINCHI писал(а):

сколько всего серий

12pb.wtf



    Дорогой пользователь! Огромная просьба, поблагодарите релизера, оцените раздачу и оставьте свои комментарий, если Вы скачали Офицерские жены через торрент бесплатно! Внесите свою лепту в развитие PiratBit!
    Комментировать посты могут только пользователи прошедшие не сложную регистрацию
    Показать сообщения:    

    Офицерские жены через торрент
    Скачать бесплатно Офицерские жены
    Офицерские жены скачать торрент
    Офицерские жены смотреть онлайн
    Cкачать фильм Офицерские жены бесплатно
    Офицерские жены скачать торрент в хорошем качестве
    Офицерские жены смотреть онлайн бесплатно в хорошем качестве


    Вы не можете начинать темы
    Вы не можете отвечать на сообщения
    Вы не можете редактировать свои сообщения
    Вы не можете удалять свои сообщения
    Вы не можете голосовать в опросах
    Вы не можете прикреплять файлы к сообщениям
    Вы можете скачивать файлы