Ссылка на приватное зеркало нашего сайта всего за 1$. Внимание количество ограничено!!!

2 сезон

iTunes

1 сезон

1

iTunes

iTunes

iTunes

1 сезон

RePack

30

ИГРА 18+

pack

ВАЖНО

!!Акция!!

Alien_RageХит недели

RePack

MK11
pack

Забери бонус

RePack

jed

!!Акция!!

Alien_Rage

RePack

fifa19

RePack

Assassins Creed: Odyssey

RePack

NEED FOR SPEED™ PAYBACK

4 сезон

9 сезон

Бесстыжие 9 сезон

Все сериалы

все сериалы на PB.wtf

RePack

FAR CRY 5
  

Особняк с привидениями / The Haunted Mansion (Роб Минкофф / Rob Minkoff) [2003, фэнтези, триллер, комедия, BDRip 1080p] DUB pb.wtf

Особняк с привидениями через торрент pb.wtf

Размер: 5.75 GB | Добавлен: 5 лет 5 мес. назад | Торрент скачан:199 раз
Скачать  

01-05-2015 08:35 Особняк с привидениями Скачать торрент  

Особняк с привидениями / The Haunted Mansion
«The reluctant guest»


Год выпуска: 2003
Страна: США
Жанр: фэнтези, триллер, комедия, детектив, семейный
Продолжительность: 01:27:56
Перевод: Дублированный
Субтитры: русские (Forced), русские (Full)
Режиссер: Роб Минкофф
В ролях: Эдди Мёрфи , Теренс Стэмп , Натаниель Паркер , Марша Томасон , Дженнифер Тилли , Уоллес Шоун , Дина Спайби , Марк Джон Джеффрис , Ари Дэвис , Джим Дуган , Рэйчел Харрис , Стив Хитнер
Описание:
Боитесь привидений? Ну, тогда вам не стоит даже приближаться к старому мрачному особняку со скрипучими дверями и темными-претемными коридорами, особенно в сопровождении всего своего семейства, как это сделал беспечный бизнесмен Джим Иверс.
И уж тем более не следует быть замешанным в продаже такой недвижимости, облюбованной компанией дружных и проказливых призраков, которым совсем не улыбалось делить свой уютный жуткий уголок с нахальными и шумными людьми. Уступать никто не желает - и вот за дом начинается настоящая война нервов между семьей Джима и 999 каверзными духами. И у привидений в ней большое преимущество - у них нет нервов!..

PG - Рекомендуется присутствие родителей
Качество: BDRip 1080p (исходник Blu-ray)
Контейнер (Расширение): MKV
Видео кодек: AVC
Аудио кодек: AC3
Видео: 1916x816 (2.35:1), 8089 Кбит/сек, 23,976 кадр/сек, 0,216 Бит/[Пиксели*Кадры]
Аудио №1: русский / AC3 / 5.1 / 48 kHz / 640 kbps / 16 bit |Дублированный|
Аудио №2: английский / AC3 / 5.1 / 48 kHz / 640 kbps / 16 bit
Навигация по главам(Чаптеры): естьАвтор рипа: Сообщество:

Код:

Format                                   : Matroska
Format version                           : Version 2
File size                                : 5.75 GiB
Duration                                 : 1h 27mn
Overall bit rate                         : 9 367 Kbps
Movie name                               : Osobnjak s prividenijami.(2003).BDRip.1080p.[denis100]
Encoded date                             : UTC 2015-05-01 07:47:37
Writing application                      : mkvmerge v5.8.0 ('No Sleep / Pillow') built on Sep  2 2012 15:37:04
Writing library                          : libebml v1.2.3 + libmatroska v1.3.0

Video
ID                                       : 1
Format                                   : AVC
Format/Info                              : Advanced Video Codec
Format profile                           : High@L4.1
Format settings, CABAC                   : Yes
Format settings, ReFrames                : 5 frames
Codec ID                                 : V_MPEG4/ISO/AVC
Duration                                 : 1h 27mn
Bit rate                                 : 8 089 Kbps
Width                                    : 1 916 pixels
Height                                   : 816 pixels
Display aspect ratio                     : 2.35:1
Frame rate                               : 23.976 fps
Color space                              : YUV
Chroma subsampling                       : 4:2:0
Bit depth                                : 8 bits
Scan type                                : Progressive
Bits/(Pixel*Frame)                       : 0.216
Stream size                              : 4.85 GiB (84%)
Title                                    : Osobnjak s prividenijami.(2003).BDRip.1080p.[denis100]
Writing library                          : x264 core 146 r2538 121396c
Encoding settings                        : cabac=1 / ref=5 / deblock=1:-3:-3 / analyse=0x3:0x133 / me=umh / subme=11 / psy=1 / psy_rd=1.00:0.05 / mixed_ref=1 / me_range=32 / chroma_me=1 / trellis=2 / 8x8dct=1 / cqm=0 / deadzone=21,11 / fast_pskip=0 / chroma_qp_offset=-3 / threads=6 / lookahead_threads=1 / sliced_threads=0 / nr=0 / decimate=1 / interlaced=0 / bluray_compat=0 / constrained_intra=0 / bframes=8 / b_pyramid=2 / b_adapt=2 / b_bias=0 / direct=3 / weightb=1 / open_gop=0 / weightp=2 / keyint=240 / keyint_min=23 / scenecut=40 / intra_refresh=0 / rc=2pass / mbtree=0 / bitrate=8089 / ratetol=1.0 / qcomp=0.60 / qpmin=0 / qpmax=69 / qpstep=4 / cplxblur=20.0 / qblur=0.5 / ip_ratio=1.40 / pb_ratio=1.30 / aq=1:1.00
Language                                 : English
Default                                  : Yes
Forced                                   : No

Audio #1
ID                                       : 2
Format                                   : AC-3
Format/Info                              : Audio Coding 3
Mode extension                           : CM (complete main)
Codec ID                                 : A_AC3
Duration                                 : 1h 27mn
Bit rate mode                            : Constant
Bit rate                                 : 640 Kbps
Channel(s)                               : 6 channels
Channel positions                        : Front: L C R, Side: L R, LFE
Sampling rate                            : 48.0 KHz
Bit depth                                : 16 bits
Compression mode                         : Lossy
Stream size                              : 403 MiB (7%)
Title                                    : Дублированный
Language                                 : Russian
Default                                  : Yes
Forced                                   : No

Audio #2
ID                                       : 3
Format                                   : AC-3
Format/Info                              : Audio Coding 3
Mode extension                           : CM (complete main)
Codec ID                                 : A_AC3
Duration                                 : 1h 27mn
Bit rate mode                            : Constant
Bit rate                                 : 640 Kbps
Channel(s)                               : 6 channels
Channel positions                        : Front: L C R, Side: L R, LFE
Sampling rate                            : 48.0 KHz
Bit depth                                : 16 bits
Compression mode                         : Lossy
Stream size                              : 403 MiB (7%)
Language                                 : English
Default                                  : No
Forced                                   : No

Text #1
ID                                       : 4
Format                                   : UTF-8
Codec ID                                 : S_TEXT/UTF8
Codec ID/Info                            : UTF-8 Plain Text
Title                                    : Forced
Language                                 : Russian
Default                                  : Yes
Forced                                   : No

Text #2
ID                                       : 5
Format                                   : UTF-8
Codec ID                                 : S_TEXT/UTF8
Codec ID/Info                            : UTF-8 Plain Text
Title                                    : Full
Language                                 : Russian
Default                                  : No
Forced                                   : No

Menu
00:00:00.000                             : en:00:00:00.000
00:03:18.532                             : en:00:03:18.532
00:05:31.498                             : en:00:05:31.498
00:07:05.634                             : en:00:07:05.634
00:10:13.738                             : en:00:10:13.738
00:11:56.758                             : en:00:11:56.758
00:16:16.809                             : en:00:16:16.809
00:22:07.159                             : en:00:22:07.159
00:24:31.053                             : en:00:24:31.053
00:28:56.026                             : en:00:28:56.026
00:30:49.431                             : en:00:30:49.431
00:32:49.843                             : en:00:32:49.843
00:37:15.066                             : en:00:37:15.066
00:39:19.190                             : en:00:39:19.190
00:46:04.345                             : en:00:46:04.345
00:49:15.411                             : en:00:49:15.411
00:55:18.607                             : en:00:55:18.607
01:00:39.469                             : en:01:00:39.469
01:03:58.793                             : en:01:03:58.793
01:05:27.549                             : en:01:05:27.549
01:07:13.696                             : en:01:07:13.696
01:09:03.806                             : en:01:09:03.806
01:10:57.044                             : en:01:10:57.044
01:21:08.781                             : en:01:21:08.781

x264 [info]: frame I:1010 Avg QP:14.32 size:189179
x264 [info]: frame P:29351 Avg QP:16.48 size: 75516
x264 [info]: frame B:96156 Avg QP:18.72 size: 30420
pb.wtf



Скачать Особняк с привидениями через торрент http://i57.fastpic.ru/big/2015/0501/fb/9d00ce7c2058246dbe3219e78940a2fb.png Скачать фильм Особняк с привидениями через торрент бесплантно в хорошем качестве Описание:Боитесь привидений? Ну, тогда вам не стоит даже приближаться к старому мрачному особняку со скрипучими дверями и ... 10 10 6
Info! Золотая раздача, скачанное не засчитывается.
Торрент: Зарегистрирован [2015-05-01 08:35] · скачан: 199 раз
Статус: √ проверено
Размер: 5.75 GB
Как cкачать? Как скачать Особняк с привидениями через торрент | qTorrent

% Раздел Тема Автор DL S | L
Фильмы 2001-2005 [ 1.45 GB ] Особняк с привидениями / The Haunted Mansion [2003 BDRip DUB + Професиональный двухголосый + Оригинал] bogyn Скачать
1 | 0
Фильмы 2001-2005 [ 1.69 GB ] Особняк с привидениями / The Haunted Mansion [2003 BDRip] / DUB + Original -=Cherry=- Скачать
1 | 0

28-11-2019 20:33  

Отключить всю рекламу на сайте

01-05-2015 14:27 Особняк с привидениями Скачать торрент  

чего это вдруг все его качают ?? может расскажете, тоже захочется pb.wtf



01-05-2015 14:29 Особняк с привидениями Скачать торрент  

а ладно пофиг тоже скачаю :rofle:pb.wtf



02-05-2015 05:40 Особняк с привидениями Скачать торрент  

Качайте не пожалеете. Фильм на твердую пятерку. Атмосфера передана отлично и Эдди Мерфи как обычно на высоте.pb.wtf



    Дорогой пользователь! Огромная просьба, поблагодарите релизера, оцените раздачу и оставьте свои комментарий, если Вы скачали Особняк с привидениями через торрент бесплатно! Внесите свою лепту в развитие PiratBit!
    Комментировать посты могут только пользователи прошедшие не сложную регистрацию
    Показать сообщения:    

    Особняк с привидениями через торрент
    Скачать бесплатно Особняк с привидениями
    Особняк с привидениями скачать торрент
    Особняк с привидениями смотреть онлайн
    Cкачать фильм Особняк с привидениями бесплатно
    Особняк с привидениями скачать торрент в хорошем качестве
    Особняк с привидениями смотреть онлайн бесплатно в хорошем качестве


    Вы не можете начинать темы
    Вы не можете отвечать на сообщения
    Вы не можете редактировать свои сообщения
    Вы не можете удалять свои сообщения
    Вы не можете голосовать в опросах
    Вы не можете прикреплять файлы к сообщениям
    Вы можете скачивать файлы