2 сезон

iTunes

MVO

1

2 сезон

iTunes

iTunes

1 сезон

RePack

30

Новинка

ВАЖНО

ИГРА 18+

pack

RePack

MK11
pack

Легкие деньги

RePack

jed

RePack

fifa19

RePack

RDR2

RePack

NEED FOR SPEED™ PAYBACK

4 сезон

9 сезон

Бесстыжие 9 сезон

Все сериалы

все сериалы на PB.wtf

RePack

FAR CRY 5

Anonymous, добрый вечер, мы не успеваем собрать деньги на оплату серверов за декабрь и январь, помогите нам пожалуйста в это трудное время. В качестве благодарности мы отключим Вам всю рекламу на сайте (укажите свой ник в строку Ваше имя)!

×
  
Magnet ссылка

Солнце над Литом / Sunshine on Leith (Декстер Флетчер) [2013, мюзикл, драма, мелодрама, комедия, BDRip AVC] AVO pb.wtf

Солнце над Литом через торрент pb.wtf

Размер: 2.08 GB | Добавлен: 5 лет 8 мес. назад | Торрент скачан:31 раз
Скачать  

01-05-2015 13:39 Солнце над Литом Скачать торрент  


Название: Солнце над Литом
Оригинальное название: Sunshine on Leith
Год выпуска: 2013
Страна: Великобритания
Жанр: мюзикл, драма, мелодрама, комедия
Продолжительность: 01:39:41
Перевод: авторский

Режиссёр: Декстер Флетчер

В ролях: Антония Томас, Питер Муллан, Джейсон Флеминг, Джордж МакКэй, Джейн Хоррокс, Фрейя Мавор, Пол Брэнниган, Кевин Гатри, Даниэла Нардини, Эмма Хартли Миллер

Описание: Фильм-мюзикл об одной дружной эдинбургской семье и трёх влюблённых парах. Вместе они переживают любовь и страдания, радость и печаль...



Качество: BDRip AVC Сравнение с исходником
Формат: MKV
Видео кодек: H.264
Аудио кодек: AC3
Видео: MPEG-4 AVC, 2034 Кбит/с, 1024x426, 23,976 кадра/с
Аудио 1: русский, AC3, 448 kbps, 6 ch, 48 kHz [авторский, Михаил Яроцкий]
Аудио 2: английский, AC3, 448 kbps, 6 ch, 48 kHz [оригинал]
Субтитры 1: русские
Субтитры 2: английские (для слабослышащих)
frame I:1327 Avg QP:15.02 size: 61242
frame P:29043 Avg QP:16.44 size: 24030
frame B:113052 Avg QP:18.26 size: 6940

Общее
Уникальный идентификатор : 190936416430566494272667746780373020770 (0x8FA50424E193F87D91BBC5A5C50B7062)
Полное имя : D:VideoСолнце над Литом.2013.BDRip.AVC.mkv
Формат : Matroska
Версия формата : Version 4 / Version 2
Размер файла : 2,08 Гбайт
Продолжительность : 1 ч. 39 м.
Общий поток : 2989 Кбит/сек
Название фильма : BDRip -- STarankov
Дата кодирования : UTC 2015-04-30 14:59:29
Программа кодирования : mkvmerge v7.8.0 ('River Man') 64bit built on Mar 27 2015 16:31:37
Библиотека кодирования : libebml v1.3.1 + libmatroska v1.4.2
DURATION : 01:35:08.827000000
NUMBER_OF_FRAMES : 1204
NUMBER_OF_BYTES : 42561
_STATISTICS_WRITING_APP : mkvmerge v7.8.0 ('River Man') 64bit built on Mar 27 2015 16:31:37
_STATISTICS_WRITING_DATE_UTC : 2015-04-30 14:59:29
_STATISTICS_TAGS : BPS DURATION NUMBER_OF_FRAMES NUMBER_OF_BYTES

Видео
Идентификатор : 1
Формат : AVC
Формат/Информация : Advanced Video Codec
Профиль формата : High@L4.1
Параметр CABAC формата : Да
Параметр ReFrames формата : 9 кадров
Идентификатор кодека : V_MPEG4/ISO/AVC
Продолжительность : 1 ч. 39 м.
Битрейт : 2034 Кбит/сек
Ширина : 1024 пикселя
Высота : 426 пикселей
Соотношение сторон : 2,40:1
Режим частоты кадров : Постоянный
Частота кадров : 23,976 кадра/сек
Цветовое пространство : YUV
Субдискретизация насыщенности : 4:2:0
Битовая глубина : 8 бит
Тип развёртки : Прогрессивная
Бит/(Пиксели*Кадры) : 0.194
Размер потока : 1,42 Гбайт (68%)
Библиотека кодирования : x264 core 146 r2538 121396c
Настройки программы : cabac=1 / ref=9 / deblock=1:-1:-1 / analyse=0x3:0x113 / me=umh / subme=10 / psy=1 / psy_rd=1.00:0.15 / mixed_ref=1 / me_range=32 / chroma_me=1 / trellis=2 / 8x8dct=1 / cqm=0 / deadzone=21,11 / fast_pskip=1 / chroma_qp_offset=-3 / threads=6 / lookahead_threads=1 / sliced_threads=0 / nr=0 / decimate=1 / interlaced=0 / bluray_compat=0 / constrained_intra=0 / bframes=8 / b_pyramid=2 / b_adapt=2 / b_bias=0 / direct=1 / weightb=1 / open_gop=0 / weightp=2 / keyint=230 / keyint_min=23 / scenecut=40 / intra_refresh=0 / rc_lookahead=40 / rc=crf / mbtree=0 / crf=17.0 / qcomp=0.60 / qpmin=0 / qpmax=69 / qpstep=4 / vbv_maxrate=40000 / vbv_bufsize=50000 / crf_max=0.0 / nal_hrd=none / filler=0 / ip_ratio=1.40 / pb_ratio=1.30 / aq=1:1.00
Язык : English
Default : Да
Forced : Нет
DURATION : 01:39:41.893000000
NUMBER_OF_FRAMES : 143422
NUMBER_OF_BYTES : 1563759918
_STATISTICS_WRITING_APP : mkvmerge v7.8.0 ('River Man') 64bit built on Mar 27 2015 16:31:37
_STATISTICS_WRITING_DATE_UTC : 2015-04-30 14:59:29
_STATISTICS_TAGS : BPS DURATION NUMBER_OF_FRAMES NUMBER_OF_BYTES

Аудио #1
Идентификатор : 2
Формат : AC-3
Формат/Информация : Audio Coding 3
Расширение режима : CM (complete main)
Параметр Endianness формата : Big
Идентификатор кодека : A_AC3
Продолжительность : 1 ч. 39 м.
Вид битрейта : Постоянный
Битрейт : 448 Кбит/сек
Каналы : 6 каналов
Расположение каналов : Front: L C R, Side: L R, LFE
Частота : 48,0 КГц
Битовая глубина : 16 бит
Метод сжатия : С потерями
Размер потока : 319 Мбайт (15%)
Заголовок : AVO (Михаил Яроцкий)
Язык : Russian
Default : Да
Forced : Нет

Аудио #2
Идентификатор : 3
Формат : AC-3
Формат/Информация : Audio Coding 3
Расширение режима : CM (complete main)
Параметр Endianness формата : Big
Идентификатор кодека : A_AC3
Продолжительность : 1 ч. 39 м.
Вид битрейта : Постоянный
Битрейт : 448 Кбит/сек
Каналы : 6 каналов
Расположение каналов : Front: L C R, Side: L R, LFE
Частота : 48,0 КГц
Битовая глубина : 16 бит
Метод сжатия : С потерями
Размер потока : 319 Мбайт (15%)
Заголовок : Original
Язык : English
Default : Нет
Forced : Нет

Текст #1
Идентификатор : 4
Формат : UTF-8
Идентификатор кодека : S_TEXT/UTF8
Идентификатор кодека/Информация : UTF-8 Plain Text
Заголовок : русские
Язык : Russian
Default : Нет
Forced : Нет

Текст #2
Идентификатор : 5
Формат : UTF-8
Идентификатор кодека : S_TEXT/UTF8
Идентификатор кодека/Информация : UTF-8 Plain Text
Заголовок : английские (для слабослышащих)
Default : Нет
Forced : Нет
pb.wtf



Скачать Солнце над Литом через торрент http://i58.fastpic.ru/big/2015/0501/ea/e003122494fe9271361845cebbdb12ea.jpg Скачать фильм Солнце над Литом через торрент бесплантно в хорошем качестве Описание: Фильм-мюзикл об одной дружной эдинбургской семье и трёх влюблённых парах. Вместе они переживают любовь и страдания, радость и ... 5.5 10 2
Торрент: Зарегистрирован [2015-05-01 13:39] · скачан: 31 раз
Статус: √ проверено
Размер: 2.08 GB
Как cкачать? Как скачать Солнце над Литом через торрент | UTorrent

% Раздел Тема Автор DL S | L
Фильмы [HD 720p, 1080p] (Хороший звук DUB, MVO) [ 9.8 GB ] Солнце над Литом / Sunshine on Leith [2013 мюзикл BDRip 1080p] AVO msltel Скачать
1 | 0
Фильмы [HD 720p, 1080p] (Хороший звук DUB, MVO) [ 3.23 GB ] Солнце над Литом / Sunshine on Leith [2013 мюзикл BDRip 720p] AVO msltel Скачать
1 | 0

28-11-2019 20:33  

Отключить всю рекламу на сайте

    Дорогой пользователь! Огромная просьба, поблагодарите релизера, оцените раздачу и оставьте свои комментарий, если Вы скачали Солнце над Литом через торрент бесплатно! Внесите свою лепту в развитие PiratBit!
    Комментировать посты могут только пользователи прошедшие не сложную регистрацию
    Показать сообщения:    

    Солнце над Литом через торрент
    Скачать бесплатно Солнце над Литом
    Солнце над Литом скачать торрент
    Солнце над Литом смотреть онлайн
    Cкачать фильм Солнце над Литом бесплатно
    Солнце над Литом скачать торрент в хорошем качестве
    Солнце над Литом смотреть онлайн бесплатно в хорошем качестве


    Вы не можете начинать темы
    Вы не можете отвечать на сообщения
    Вы не можете редактировать свои сообщения
    Вы не можете удалять свои сообщения
    Вы не можете голосовать в опросах
    Вы не можете прикреплять файлы к сообщениям
    Вы можете скачивать файлы