Ссылка на приватное зеркало нашего сайта всего за 1$. Внимание количество ограничено!!!

2 сезон

iTunes

1 сезон

1

iTunes

iTunes

iTunes

1 сезон

RePack

30

ИГРА 18+

pack

ВАЖНО

!!Акция!!

Alien_RageХит недели

RePack

MK11
pack

Забери бонус

RePack

jed

!!Акция!!

Alien_Rage

RePack

fifa19

RePack

Assassins Creed: Odyssey

RePack

NEED FOR SPEED™ PAYBACK

4 сезон

9 сезон

Бесстыжие 9 сезон

Все сериалы

все сериалы на PB.wtf

RePack

FAR CRY 5
  

Феникс / Phoenix (Кристиан Петцольд ) [2014, драма, история, BDRip 720p, Профессиональный (многоголосый)] pb.wtf

Феникс через торрент pb.wtf

Размер: 3.4 GB | Добавлен: 5 лет 5 мес. назад | Торрент скачан:139 раз
Скачать  

02-05-2015 03:26 Феникс Скачать торрент  


Феникс / Phoenix


ИНФОРМАЦИЯ:
Год выпуска:2014
Страна: Германия, Польша
Жанр: драма, история
Продолжительность: 01:38:00
Перевод: Профессиональный (многоголосый)
Субтитры: английские,
Режиссер: Кристиан Петцольд

В Ролях:


Нина Хосс (Nelly Lenz), Рональд Церфельд (Johannes «Johnny»), Нина Кунцендорф (Lene Winter), Михаэль Мертенс (Arzt), Имоген Когге (Elisabeth), Керстен Блок, Уве Пройсс (Clubbesitzer), Ева Бэй (Tänzerin), Джефф Баррелл, София Эксс (Zigarettenmädchen), Меган Гэй (Mitarbeiterin Zentralstelle), Клаудиа Гайслер-Бадинг (Frederike)

ОПИСАНИЕ:
Нелли Ленц, жертва Холокоста, которой удалось выжить в концлагере. Она ранена, у неё сильно искалечено лицо. Сотрудница Еврейского агентства Лене Винтер помогает Нелли добраться до Берлина, где ей сделали пластическую операцию. Поправившись после операции, Нелли начинает искать своего мужа, Йоханнса. Когда она наконец нашла его, Йоханнес не узнал свою жену, которую считает погибшей. Тем не менее, он признает, что эта незнакомая ему женщина похожа на его «покойную» жену. И тогда Йоханнес делает деловое предложение Нелли - она должна будет изображать его жену, чтобы получить состояние, которое ей досталось от семьи. Нелли соглашается...

  • Мировая премьера:5 сентября 2014

    ТЕХ.ДАННЫЕ:
    Качество: BDRip 720p
    Формат: MKV
    Видео кодек: AVC
    Аудио кодек: AC3, DTS
    Видео: AVC, 1280x536 (2.40:1), 4011 kbps, 24 fps, 0,244 bpp
    Аудио №1: русский / AC3 / 2.0 / 48 kHz / 192 kbps / 16 bit ||
    Аудио №2: немецкий / DTS / 5.1 / 48 kHz / 755 kbps / 24 bit
    Навигация по главам: есть



    Код:

    General
    Unique ID                                : 195312362370855604414064443408485481023 (0x92EFCAEFB10F405F94C3B89CC31C7A3F)
    Complete name                            : D:\Торенты\Feniks.2014.P.BDRip.720p.mkv
    Format                                   : Matroska
    Format version                           : Version 2
    File size                                : 3.40 GiB
    Duration                                 : 1h 38mn
    Overall bit rate                         : 4 974 Kbps
    Encoded date                             : UTC 2015-05-01 20:43:57
    Writing application                      : mkvmerge v4.0.0 ('The Stars were mine') сборка от Jun  6 2010 16:18:42
    Writing library                          : libebml v1.0.0 + libmatroska v1.0.0

    Video
    ID                                       : 1
    Format                                   : AVC
    Format/Info                              : Advanced Video Codec
    Format profile                           : High@L4.1
    Format settings, CABAC                   : Yes
    Format settings, ReFrames                : 5 frames
    Codec ID                                 : V_MPEG4/ISO/AVC
    Duration                                 : 1h 38mn
    Bit rate                                 : 4 011 Kbps
    Width                                    : 1 280 pixels
    Height                                   : 536 pixels
    Display aspect ratio                     : 2.40:1
    Frame rate                               : 24.000 fps
    Color space                              : YUV
    Chroma subsampling                       : 4:2:0
    Bit depth                                : 8 bits
    Scan type                                : Progressive
    Bits/(Pixel*Frame)                       : 0.244
    Stream size                              : 2.69 GiB (79%)
    Writing library                          : x264 core 146 r2538 121396c
    Encoding settings                        : cabac=1 / ref=5 / deblock=1:-2:-2 / analyse=0x3:0x113 / me=umh / subme=8 / psy=1 / psy_rd=1.00:0.15 / mixed_ref=1 / me_range=16 / chroma_me=1 / trellis=1 / 8x8dct=1 / cqm=0 / deadzone=21,11 / fast_pskip=0 / chroma_qp_offset=-3 / threads=6 / lookahead_threads=1 / sliced_threads=0 / nr=0 / decimate=1 / interlaced=0 / bluray_compat=0 / constrained_intra=0 / bframes=3 / b_pyramid=2 / b_adapt=2 / b_bias=0 / direct=3 / weightb=1 / open_gop=0 / weightp=2 / keyint=250 / keyint_min=24 / scenecut=40 / intra_refresh=0 / rc_lookahead=50 / rc=2pass / mbtree=1 / bitrate=4011 / ratetol=1.0 / qcomp=0.60 / qpmin=0 / qpmax=69 / qpstep=4 / cplxblur=20.0 / qblur=0.5 / ip_ratio=1.40 / aq=1:1.00
    Language                                 : English
    Default                                  : No
    Forced                                   : No

    Audio #1
    ID                                       : 2
    Format                                   : AC-3
    Format/Info                              : Audio Coding 3
    Mode extension                           : CM (complete main)
    Codec ID                                 : A_AC3
    Duration                                 : 1h 38mn
    Bit rate mode                            : Constant
    Bit rate                                 : 192 Kbps
    Channel(s)                               : 2 channels
    Channel positions                        : Front: L R
    Sampling rate                            : 48.0 KHz
    Bit depth                                : 16 bits
    Compression mode                         : Lossy
    Stream size                              : 135 MiB (4%)
    Language                                 : Russian
    Default                                  : Yes
    Forced                                   : Yes

    Audio #2
    ID                                       : 3
    Format                                   : DTS
    Format/Info                              : Digital Theater Systems
    Codec ID                                 : A_DTS
    Duration                                 : 1h 38mn
    Bit rate mode                            : Constant
    Bit rate                                 : 755 Kbps
    Channel(s)                               : 6 channels
    Channel positions                        : Front: L C R, Side: L R, LFE
    Sampling rate                            : 48.0 KHz
    Bit depth                                : 24 bits
    Compression mode                         : Lossy
    Delay relative to video                  : 11ms
    Stream size                              : 529 MiB (15%)
    Language                                 : German
    Default                                  : No
    Forced                                   : No

    Text
    ID                                       : 4
    Format                                   : UTF-8
    Codec ID                                 : S_TEXT/UTF8
    Codec ID/Info                            : UTF-8 Plain Text
    Language                                 : English
    Default                                  : No
    Forced                                   : Yes

    Menu
    00:00:00.000                             : en:00:00:00.000
    00:03:23.125                             : en:00:03:23.125
    00:09:37.708                             : en:00:09:37.708
    00:16:18.417                             : en:00:16:18.417
    00:22:07.375                             : en:00:22:07.375
    00:29:55.458                             : en:00:29:55.458
    00:34:16.667                             : en:00:34:16.667
    00:38:39.792                             : en:00:38:39.792
    00:41:18.417                             : en:00:41:18.417
    00:48:23.583                             : en:00:48:23.583
    00:51:46.042                             : en:00:51:46.042
    00:57:44.208                             : en:00:57:44.208
    01:05:30.583                             : en:01:05:30.583
    01:07:29.792                             : en:01:07:29.792
    01:10:35.208                             : en:01:10:35.208
    01:19:47.958                             : en:01:19:47.958
    01:25:33.167                             : en:01:25:33.167
    01:34:32.208                             : en:01:34:32.208

    Скриншоты:


    © Оформление by Ворон
    pb.wtf



  • Скачать Феникс через торрент http://pic.kartinco.top/images/6/ordi9.jpg Скачать фильм Феникс через торрент бесплантно в хорошем качестве Е:Нелли Ленц, жертва Холокоста, которой удалось выжить в концлагере. Она ранена, у неё сильно искалечено лицо. Сотрудница Еврейского ... 8.8 10 6
    Торрент: Зарегистрирован [2015-05-02 03:26] · скачан: 139 раз
    Статус: √ проверено
    Размер: 3.4 GB
    Как cкачать? Как скачать Феникс через торрент | qTorrent

    % Раздел Тема Автор DL S | L
    Фильмы (HD 720p, 1080p) (48-60 fps) [ 3.61 GB ] Люди Икс: Тёмный Феникс / Dark Phoenix [2019 BDRip 720p / 60 FPS BD CEE] от R.G. HD-Films slaventi-69 Скачать
    4 | 1
    Классика зарубежного кино [ 20.97 GB ] Полёт Феникса / The Flight of the Phoenix [1965 BDRip 1080p by msltel] MVO DVO AVO msltel Скачать
    1 | 0
    Классика зарубежного кино [ 6.63 GB ] Полёт Феникса / The Flight of the Phoenix [1965 BDRip 720p by msltel] MVO DVO AVO msltel Скачать
    1 | 0
    Классика зарубежного кино [ 3.64 GB ] Полёт Феникса / The Flight of the Phoenix [1965 BDRip by msltel] MVO DVO AVO msltel Скачать
    1 | 0
    Фильмы [HD 720p, 1080p] (Хороший звук DUB, MVO) [ 4.31 GB ] Люди Икс: Тёмный Феникс / Dark Phoenix [2019 BDRip 720p] - ExKinoRay Enigma2010 Скачать
    21 | 0
    Фильмы 2019-2020 [DVDrip, WEB-DLRip, HDrip] (DUB, MVO) [ 1.46 GB ] Люди Икс: Тёмный Феникс / Dark Phoenix [2019 BDRip] - [] Twi7ter Скачать
    37 | 0
    Фильмы [HD 720p, 1080p] (Хороший звук DUB, MVO) [ 13.16 GB ] Люди Икс: Тёмный Феникс / Dark Phoenix [2019 BDRip 1080p] DUB [] bober100 Скачать
    5 | 0

    28-11-2019 20:33  

    Отключить всю рекламу на сайте

    02-05-2015 08:42 Феникс Скачать торрент  

    что молчим . как фильмpb.wtf



      Дорогой пользователь! Огромная просьба, поблагодарите релизера, оцените раздачу и оставьте свои комментарий, если Вы скачали Феникс через торрент бесплатно! Внесите свою лепту в развитие PiratBit!
      Комментировать посты могут только пользователи прошедшие не сложную регистрацию
      Показать сообщения:    

      Феникс через торрент
      Скачать бесплатно Феникс
      Феникс скачать торрент
      Феникс смотреть онлайн
      Cкачать фильм Феникс бесплатно
      Феникс скачать торрент в хорошем качестве
      Феникс смотреть онлайн бесплатно в хорошем качестве


      Вы не можете начинать темы
      Вы не можете отвечать на сообщения
      Вы не можете редактировать свои сообщения
      Вы не можете удалять свои сообщения
      Вы не можете голосовать в опросах
      Вы не можете прикреплять файлы к сообщениям
      Вы можете скачивать файлы