2 сезон

iTunes

1 сезон

1

iTunes

iTunes

iTunes

1 сезон

RePack

30

ИГРА 18+

pack

ВАЖНО

!!Акция!!

Alien_RageХит недели

RePack

MK11
pack

Забери бонус

RePack

jed

!!Акция!!

Alien_Rage

RePack

fifa19

RePack

Assassins Creed: Odyssey

RePack

NEED FOR SPEED™ PAYBACK

4 сезон

9 сезон

Бесстыжие 9 сезон

Все сериалы

все сериалы на PB.wtf

RePack

FAR CRY 5
  

Торт / Cake (Даниел Барнз ) [2014, драма, BDRip, DVO [ColdFilm] pb.wtf

Торт через торрент pb.wtf

Размер: 1.45 GB | Добавлен: 5 лет 5 мес. назад | Торрент скачан:259 раз
Скачать  

03-05-2015 04:43 Торт Скачать торрент  


Торт / Cake
«Прощение - горькая пилюля для глотания»

ИНФОРМАЦИЯ:
Год выпуска:2014
Страна: США
Жанр: драма
Продолжительность: 01:41:45
Перевод: Любительский (двухголосый)ColdFilm
Примечание: Присутствует ненормативная лексика
Режиссер: Даниел Барнз

В Ролях:


Дженнифер Энистон (Claire Bennett), Адриана Барраса (Silvana), Фелисити Хаффман (Annette), Уильям Х. Мэйси (Leonard), Анна Кендрик (Nina Collins), Сэм Уортингтон (Roy Collins), Мэми Гаммер (Bonnie), Крис Мессина (Jason Bennett), Люси Панч (Nurse Gayle), Бритт Робертсон (Becky), Паула Кейл (Carol), Эшли Кроу (Stephanie)

Описание:
Клэр привлекательная, веселая и острая на язык женщина. В один день она узнаёт о самоубийстве одной из участниц группы психологической поддержки, собрания которой она посещает из-за синдрома хронической боли. Клэр решает узнать историю этой несчастной. Копаясь в жизни покойной, она переживает болезненный роман с вдовцом и сама становится жертвой трагедии.

  • Мировая премьера:8 сентября 2014

    ТЕХ.ДАННЫЕ:
    Качество: BDRip
    Формат: AVI
    Видео кодек: XviD
    Аудио кодек: AC3
    Видео: XviD, 704x288 (2.40:1), 1839 kbps, 23,976 fps, 0,362 bpp
    Аудио: AC3 / 2.0 / 48 kHz / 192 kbps / 16 bit



    Код:

    General
    Complete name                            : D:\Торенты\Cake.2014.L2.BDRip.NNM-CLUB.avi
    Format                                   : AVI
    Format/Info                              : Audio Video Interleave
    File size                                : 1.45 GiB
    Duration                                 : 1h 41mn
    Overall bit rate                         : 2 040 Kbps
    Writing application                      : VirtualDubMod 1.5.10.3 | www.virtualdub-fr.org || (build 2550/release)
    Writing library                          : VirtualDubMod build 2550/release

    Video
    ID                                       : 0
    Format                                   : MPEG-4 Visual
    Format profile                           : Advanced Simple@L5
    Format settings, BVOP                    : 1
    Format settings, QPel                    : No
    Format settings, GMC                     : No warppoints
    Format settings, Matrix                  : Default (MPEG)
    Codec ID                                 : XVID
    Codec ID/Hint                            : XviD
    Duration                                 : 1h 41mn
    Bit rate                                 : 1839 Kbps
    Width                                    : 704 pixels
    Height                                   : 288 pixels
    Display aspect ratio                     : 2.40:1
    Frame rate                               : 23.976 fps
    Color space                              : YUV
    Chroma subsampling                       : 4:2:0
    Bit depth                                : 8 bits
    Scan type                                : Progressive
    Compression mode                         : Lossy
    Bits/(Pixel*Frame)                       : 0.362
    Stream size                              : 1.25 GiB (86%)
    Writing library                          : XviD 1.2.1 (UTC 2008-12-04)

    Audio
    ID                                       : 1
    Format                                   : AC-3
    Format/Info                              : Audio Coding 3
    Mode extension                           : CM (complete main)
    Codec ID                                 : 2000
    Duration                                 : 1h 41mn
    Bit rate mode                            : Constant
    Bit rate                                 : 192 Kbps
    Channel(s)                               : 2 channels
    Channel positions                        : Front: L R
    Sampling rate                            : 48.0 KHz
    Bit depth                                : 16 bits
    Compression mode                         : Lossy
    Stream size                              : 140 MiB (9%)
    Alignment                                : Split accross interleaves

    Скриншоты:


    © Оформление by Ворон
    pb.wtf



  • Скачать Торт через торрент http://pic.kartinco.top/images/6/ordi9.jpg Скачать фильм Торт через торрент бесплантно в хорошем качестве Описание: Клэр привлекательная, веселая и острая на язык женщина. В один день она узнаёт о самоубийстве одной из участниц группы ... 10 10 5
    Торрент: Зарегистрирован [2015-05-03 04:43] · скачан: 259 раз
    Статус: T временная
    Размер: 1.45 GB
    Как cкачать? Как скачать Торт через торрент | qTorrent

    % Раздел Тема Автор DL S | L
    Фильмы [HD 720p, 1080p] (Хороший звук DUB, MVO) [ 10.09 GB ] Слоёный торт / Layer Cake [2004 BDRip-HEVC 1080p ] MVO+3xDVO+AVO+VO bober100 Скачать
    1 | 0
    T Фильмы [HD 720p, 1080p] (Хороший звук DUB, MVO) [ 11.26 GB ] Торт / Cake [2014 BDRip 1080p by msltel] MVO DVO VO msltel Скачать
    1 | 0
    Фильмы [HD 720p, 1080p] (Хороший звук DUB, MVO) [ 3.91 GB ] Торт / Cake [2014 BDRip 720p by msltel] MVO DVO VO msltel Скачать
    1 | 0
    Фильмы 2014 [DVDrip, WEB-DLRip, HDrip] [ 1.46 GB ] Чокнутая / Торт / Cake [2014 HDRip Ворон Скачать
    1 | 0
    Фильмы 2001-2005 [ 747 MB ] Слоеный торт / Layer Cake [2004 BDRip] [DVO] killermax2013 Скачать
    1 | 0
    Разное [ 165 MB ] Секси торт на именины / Paige serves up a special birthday butt cake [2011 Big Butt Big Titts Blowjob Hardcore Oiled Oral Cum shot SATRip] sheker187 Скачать
    1 | 0
    Фильмы 2001-2005 [ 1.45 GB ] Слоеный Торт / Layer Cake [2004 BDRip MVO + MVO ] bogyn Скачать
    3 | 0

    28-11-2019 20:33  

    Отключить всю рекламу на сайте

      Дорогой пользователь! Огромная просьба, поблагодарите релизера, оцените раздачу и оставьте свои комментарий, если Вы скачали Торт через торрент бесплатно! Внесите свою лепту в развитие PiratBit!
      Комментировать посты могут только пользователи прошедшие не сложную регистрацию
      Показать сообщения:    

      Торт через торрент
      Скачать бесплатно Торт
      Торт скачать торрент
      Торт смотреть онлайн
      Cкачать фильм Торт бесплатно
      Торт скачать торрент в хорошем качестве
      Торт смотреть онлайн бесплатно в хорошем качестве


      Вы не можете начинать темы
      Вы не можете отвечать на сообщения
      Вы не можете редактировать свои сообщения
      Вы не можете удалять свои сообщения
      Вы не можете голосовать в опросах
      Вы не можете прикреплять файлы к сообщениям
      Вы можете скачивать файлы