Ссылка на приватное зеркало всего за 1$. Внимание количество ограничено!!!

iTunes

iTunes

iTunes

1

iTunes

iTunes

iTunes

iTunes

iTunes

30
pack

Новость дня

ВАЖНО

!!Акция!!

Alien_RageХит недели

RePack

Resident Evil 21

ИГРА 18+

pack

RePack

jed

!!Акция!!

Alien_Rage

RePack

fifa19

RePack

Assassins Creed: Odyssey

RePack

NEED FOR SPEED™ PAYBACK

4 сезон

9 сезон

Бесстыжие 9 сезон

Все сериалы

все сериалы на PB.wtf

RePack

FAR CRY 5
  

Битва за Севастополь (Сергей Мокрицкий) [2015, Россия, Украина, военный, драма, мелодрама, WEB-DLRip-AVC,] Оригинал [iTunes] От R.G. PiratFilms pb.wtf

Битва за Севастополь через торрент pb.wtf

Размер: 1.41 GB | Добавлен: 5 лет назад | Торрент скачан:751 раз
Скачать  

03-05-2015 07:43 Битва за Севастополь Скачать торрент  



Битва за Севастополь


Год выпуска: 2015
Страна: Россия, Украина
Жанр: военный, драма, мелодрама, боевик

Продолжительность: 01:57:56
Перевод: Оригинал [iTunes]
Субтитры: Нет
Режиссер: Сергей Мокрицкий
В ролях:

Юлия Пересильд (Людмила Павличенко), Евгений Цыганов (Леонид Киценко), Олег Васильков (снайпер Макаров), Никита Тарасов (Борис Чопак), Джоан Блэкэм (Элеонора Рузвельт), Полина Пахомова (Маша), Владимир Лилицкий (Гриша), Анатолий Кот (Николай), Нателла Абелева-Таганова (Соня), Валерий Гришко (генерал Петров), Сергей Барковский (генерал Октябрьский), Виталий Линецкий (майор КМБ)
Описание:
Любовь под нескончаемым огнем противника, дружба с Элеонорой Рузвельт, выступление на конференции, повлиявшее на исход Второй мировой войны, желание жить и страх потерять любимого человека - справится ли со всем этим хрупкая женщина?
Это реальная история Людмилы Павличенко - легендарной женщины-снайпера. Солдаты шли в бой с ее именем на устах, а враги устроили на нее охоту. На поле битвы она видела смерть и страдания, но самым серьезным испытанием для нее стала любовь, которую у нее могла забрать война...
Мировая премьера: 2 апреля 2015
    Качество: WEB-DLRip-AVC (исх.WEB-DLRip 1080р)
    Формат: MKV
    Видео кодек: AVC
    Аудио кодек:AC3
    Видео: AVC, 1024x428 (2.40:1), 1326 kbps, 25 fps, 0,121 bpp
    Аудио: русский / AC3 / 5.1 / 48 kHz / 384 kbps / 16 bit ||


Код:

---[Information] [03.05.2015 2:47:28] x264 [info]: frame I:1283  Avg QP:17.32  size: 43351  PSNR Mean Y:47.23 U:53.05 V:52.56 Avg:48.30 Global:47.75
---[Information] [03.05.2015 2:47:28] x264 [info]: frame P:49403 Avg QP:20.51  size: 12691  PSNR Mean Y:44.49 U:53.12 V:52.58 Avg:45.74 Global:45.00
---[Information] [03.05.2015 2:47:28] x264 [info]: frame B:126230 Avg QP:22.45  size:  3881  PSNR Mean Y:44.12 U:51.79 V:51.03 Avg:45.38 Global:44.48

Код:

General
Unique ID                                : 184383891206471883558881619575846155912 (0x8AB70BB5347839C396889163B22F3688)
Complete name                            : D:\рипы От R.G. PiratFilms\B1tva.3a.C3vact0p0L.2015.WEB DLRip-AVC.by.White Smoke.R.G.PiratFilms.mkv
Format                                   : Matroska
Format version                           : Version 4 / Version 2
File size                                : 1.41 GiB
Duration                                 : 1h 57mn
Overall bit rate                         : 1 711 Kbps
Encoded date                             : UTC 2015-05-03 06:52:09
Writing application                      : mkvmerge v7.6.0 ('Garden of Dreams') 64bit built on Feb  8 2015 13:04:34
Writing library                          : libebml v1.3.1 + libmatroska v1.4.2
DURATION                                 : 01:57:56.640000000
NUMBER_OF_FRAMES                         : 221145
NUMBER_OF_BYTES                          : 339678720
_STATISTICS_WRITING_APP                  : mkvmerge v7.6.0 ('Garden of Dreams') 64bit built on Feb  8 2015 13:04:34
_STATISTICS_WRITING_DATE_UTC             : 2015-05-03 06:52:09
_STATISTICS_TAGS                         : BPS DURATION NUMBER_OF_FRAMES NUMBER_OF_BYTES

Video
ID                                       : 1
Format                                   : AVC
Format/Info                              : Advanced Video Codec
Format profile                           : High@L4.1
Format settings, CABAC                   : Yes
Format settings, ReFrames                : 12 frames
Codec ID                                 : V_MPEG4/ISO/AVC
Duration                                 : 1h 57mn
Bit rate                                 : 1 326 Kbps
Width                                    : 1 024 pixels
Height                                   : 428 pixels
Display aspect ratio                     : 2.40:1
Frame rate                               : 25.000 fps
Color space                              : YUV
Chroma subsampling                       : 4:2:0
Bit depth                                : 8 bits
Scan type                                : Progressive
Bits/(Pixel*Frame)                       : 0.121
Stream size                              : 1.07 GiB (76%)
Writing library                          : x264 core 146 r2538 121396c
Encoding settings                        : cabac=1 / ref=12 / deblock=1:-3:-3 / analyse=0x3:0x113 / me=umh / subme=9 / psy=1 / psy_rd=1.00:0.00 / mixed_ref=1 / me_range=32 / chroma_me=1 / trellis=1 / 8x8dct=1 / cqm=0 / deadzone=21,11 / fast_pskip=1 / chroma_qp_offset=-2 / threads=6 / lookahead_threads=1 / sliced_threads=0 / nr=0 / decimate=1 / interlaced=0 / bluray_compat=0 / constrained_intra=0 / bframes=5 / b_pyramid=2 / b_adapt=2 / b_bias=6 / direct=1 / weightb=0 / open_gop=0 / weightp=2 / keyint=250 / keyint_min=25 / scenecut=40 / intra_refresh=0 / rc_lookahead=40 / rc=2pass / mbtree=1 / bitrate=1326 / ratetol=1.0 / qcomp=0.65 / qpmin=0 / qpmax=69 / qpstep=4 / cplxblur=20.0 / qblur=0.5 / ip_ratio=1.40 / aq=1:1.00
Language                                 : English
Default                                  : Yes
Forced                                   : No
DURATION                                 : 01:57:56.640000000
NUMBER_OF_FRAMES                         : 176916
NUMBER_OF_BYTES                          : 1172494506
_STATISTICS_WRITING_APP                  : mkvmerge v7.6.0 ('Garden of Dreams') 64bit built on Feb  8 2015 13:04:34
_STATISTICS_WRITING_DATE_UTC             : 2015-05-03 06:52:09
_STATISTICS_TAGS                         : BPS DURATION NUMBER_OF_FRAMES NUMBER_OF_BYTES

Audio
ID                                       : 2
Format                                   : AC-3
Format/Info                              : Audio Coding 3
Mode extension                           : CM (complete main)
Codec ID                                 : A_AC3
Duration                                 : 1h 57mn
Bit rate mode                            : Constant
Bit rate                                 : 384 Kbps
Channel(s)                               : 6 channels
Channel positions                        : Front: L C R, Side: L R, LFE
Sampling rate                            : 48.0 KHz
Bit depth                                : 16 bits
Compression mode                         : Lossy
Stream size                              : 324 MiB (22%)
Language                                 : Russian
Default                                  : Yes
Forced                                   : No


Скриншоты:
pb.wtf



Скачать Битва за Севастополь через торрент http://i5.imageban.ru/out/2015/01/28/01859fe8d4e21166f16a4c733dadb0aa.gif Скачать фильм Битва за Севастополь через торрент бесплантно в хорошем качестве Описание: Любовь под нескончаемым огнем противника, дружба с Элеонорой Рузвельт, выступление на конференции, повлиявшее на исход Второй ... 8.7 10 15
Info! Золотая раздача, скачанное не засчитывается.
Торрент: Зарегистрирован [2015-05-03 07:43] · скачан: 751 раз
Статус: √ проверено
Размер: 1.41 GB
Как cкачать? Как скачать Битва за Севастополь через торрент | qTorrent

% Раздел Тема Автор DL S | L
Трейлеры и дополнительные материалы к фильмам [ 791 MB ] Битва за Севастополь [2015 Россия Украина военный DCPRip 2k] [Hi10P Hi444PP]Трейлер от R.G. PiratFilms Messa-fan Скачать
1 | 0
Наши новые фильмы 2015 [ 1.46 GB ] Битва за Севастополь [2015 Россия Украина военный DVDRip-AVC] Оригинал [лицензия] От R.G. PiratFilms White Smoke Скачать
1 | 0

28-11-2019 20:33  

Отключить всю рекламу на сайте

03-05-2015 09:32 Битва за Севастополь Скачать торрент  

Как качество?, Кто смотрел?pb.wtf



05-05-2015 09:54 Битва за Севастополь Скачать торрент  

pb.wtf



06-05-2015 17:50 Битва за Севастополь Скачать торрент  

Неплохой фильм , советую к просмотру ...pb.wtf



07-05-2015 07:58 Битва за Севастополь Скачать торрент  

Нудота невероятная. Надуманно, пафосно. Куча штампов, украденных из "Перл Харбора". Фильм очень слабый.pb.wtf



10-05-2015 11:51 Битва за Севастополь Скачать торрент  

Ни чего хорошего от сегодняшнего кинематографа я и не ждал.Посмотрев через силу до конца ещё раз подтвердил своё мнение. Просто за ветеранов обидно что на их Великую победу!!! такое г...... сняли и показали в праздник на первом канале. Очередное кассовое г........о. Я считаю это издевательством над людьми прошедшими через ад.pb.wtf



    Дорогой пользователь! Огромная просьба, поблагодарите релизера, оцените раздачу и оставьте свои комментарий, если Вы скачали Битва за Севастополь через торрент бесплатно! Внесите свою лепту в развитие PiratBit!
    Комментировать посты могут только пользователи прошедшие не сложную регистрацию
    Показать сообщения:    

    Битва за Севастополь через торрент
    Скачать бесплатно Битва за Севастополь
    Битва за Севастополь скачать торрент
    Битва за Севастополь смотреть онлайн
    Cкачать фильм Битва за Севастополь бесплатно
    Битва за Севастополь скачать торрент в хорошем качестве
    Битва за Севастополь смотреть онлайн бесплатно в хорошем качестве


    Вы не можете начинать темы
    Вы не можете отвечать на сообщения
    Вы не можете редактировать свои сообщения
    Вы не можете удалять свои сообщения
    Вы не можете голосовать в опросах
    Вы не можете прикреплять файлы к сообщениям
    Вы можете скачивать файлы