Присоединяйтесь к нам в Telegram!, здесь всегда актуальный адрес сайта, оперативная поддержка и многое другое!!

>

5.9

iTunes

7.4

iTunes

9.4

1 сезон

1

7.4

2 сезон

7.2

iTunes

7.3

1 сезон

13

6.1

iTunes

8.3

GOG

30

ULTIMATE

pack

9.9

Лицензия

ВАЖНО

ИГРА 18+

pack

7.3

RePack

MK11

7.7

RePack

jed

7.8

RePack

fifa19

8.5

RePack

RDR2

RePack

NEED FOR SPEED™ PAYBACK

5 сезон

9 сезон

Бесстыжие 9 сезон

Все сериалы

все сериалы на PB.wtf

RePack

FAR CRY 5

Anonymous, добрый вечер, мы катастрофически не успеваем собрать деньги на оплату серверов, помогите нам пожалуйста 5,10,15р., для нас важна любая помощь . В качестве благодарности мы отключим Вам всю рекламу на сайте (укажите свой ник в строку Ваше имя)!

×
  
Magnet ссылка

Клипы с mc-nudes / The girls of MCN [2015 г., Adult erotic music clips, HDTVRip 720p, Оригинал] pb.wtf

Клипы с mc-nudes через торрент pb.wtf

Размер: 5.33 GB | Добавлен: 6 лет 6 мес. назад | Торрент скачан:421 раз
Смотреть онлайн Клипы с mc-nudes | Скачать    Ребята, помогите собрать деньги на оплату серверов!!!

03-05-2015 15:10 Клипы с mc-nudes Скачать торрент  

Клипы с mc-nudes / The girls of MCN
Год выпуска: 2015
Страна: All World
Жанр: Adult erotic music clips
Продолжительность: 03:05:59
Перевод: Оригинал

Описание:

Клипы с сайта и рекомендую для эстетов, ни какой порнухи, просто эротика и красивая эротика, под приятную музыку. Nudity and beauty of women in all its forms portrait of woman, erotic, sexy, lingerie, bikini, striptease, nsfw, Playboy and more! Art nude, naked people, eroticism, sensuality, but NOT porn!
01. Adela - Black Beach Model [04:00]
02. Adela - White Beach [04:33]
03. Adriana [03:58]
04. Adriana 2 [02:01]
05. Alena - Love Me [02:07]
06. Amanda visions [03:11]
07. Bambi Sensuous [05:04]
08. Bambi [02:55]
09. Bambi Silhouette [03:24]
10. Bambi wild nature [05:00]
11. Cathy - Studio [04:40]
12. Dana - Summer Gottage [02:48]
13. Dora farm holifay [03:48]
14. Eufrat loaded [03:24]
15. Eufrat - Part one [03:23]
16. Eve - Especial [02:44]
17. Evita On the terrace [03:33]
18. Isabella - Adventures [02:24]
19. Ivette flowless [04:58]
20. Kelly - Backstage [03:46]
21. Lisa - Lisa in bed [03:46]
22. Lolita - Unveilid [02:46]
23. Maria - Muse [02:04]
24. Marketa Outdoor [03:19]
25. Martina - Romantic [02:43]
26. Marija - Golden [03:16]
27. Melli & Monika - Bedroom Part 1 [03:39]
28. Melli & Monika - Bedroom Part 2 [03:31]
29. Melli - In Bed Part one [03:33]
30. Melli - In Bed Part two [03:19]
31. Melli on the Couch Part 1 [03:33]
32. Melli on the Couch Part 2 [03:14]
33. Melli Part one [04:27]
34. Melli - The Making of [03:36]
35. Milly Morris and Monique [02:24]
36. Model of the year - Marceta [04:11]
37. Monika Bedroom Part one [03:30]
38. Monika Bedroom Part two [03:22]
39. Monika blue [03:28]
40. Monika Exsclusive [03:52]
41. Naemi - Poetry [04:15]
42. Nancy and Janna - Very Close To [02:02]
43. Princessa In bed Part one [03:35]
44. Princessa In bed with Princessa [04:31]
45. Princessa In bed with Princessa Part two [03:34]
46. Princessa - Posing [03:10]
47. Sonia - Defined [03:06]
48. Susana Spears - Black beach [04:36]
49. Susana Spears - Tropical Day [04:56]
50. Veronica de Suiza - Maiden [04:19]
51. Veronika & Eufrat - Daydreaming [04:10]
52. Zoe & Samantha - Intimacy [04:07]
Качество: HDTVRip 720p
Формат: AVI
Видео кодек: DivX
Аудио кодек: MP3
Видео: MPEG4, DivX 5, 1280x720 (16:9), 25.000 fps, 4 668 Kbps (0.203 bit/pixel)
Аудио#1: MP3, 48.0 KHz, 2 ch, 128 Kbps, CBR
скриншот   скриншот   скриншот   скриншот   скриншот   скриншот  
скриншот   скриншот   скриншот   скриншот   скриншот   скриншот  

Общее
Полное имя : C:\Раздача\Клипы\The girls of MCN (2015)\01. Adela - Black Beach Model.avi
Формат : AVI
Формат/Информация : Audio Video Interleave
Размер файла : 130 Мбайт
Продолжительность : 4 м. 0 с.
Общий поток : 4545 Кбит/сек

Видео
Идентификатор : 0
Формат : MPEG-4 Visual
Параметр BVOP формата : 1
Параметр QPel формата : Нет
Параметр GMC формата : Без точки перехода
Параметр матрицы формата : Default (H.263)
Режим смешивания : Сжатый битовый поток
Идентификатор кодека : DX50
Идентификатор кодека/Подсказка : DivX 5
Продолжительность : 4 м. 0 с.
Битрейт : 4410 Кбит/сек
Ширина : 1280 пикселей
Высота : 720 пикселей
Соотношение сторон : 16:9
Частота кадров : 25,000 кадров/сек
Цветовое пространство : YUV
Субдискретизация насыщенности : 4:2:0
Битовая глубина : 8 бит
Тип развёртки : Прогрессивная
Метод сжатия : С потерями
Бит/(Пиксели*Кадры) : 0.191
Размер потока : 126 Мбайт (97%)
Библиотека кодирования : DivX 5.0.5 Beta(Tahanea) (UTC 2003-01)

Аудио
Идентификатор : 1
Формат : MPEG Audio
Версия формата : Version 1
Профиль формата : Layer 3
Идентификатор кодека : 55
Идентификатор кодека/Подсказка : MP3
Продолжительность : 4 м. 0 с.
Вид битрейта : Постоянный
Битрейт : 128 Кбит/сек
Каналы : 2 канала
Частота : 48,0 КГц
Метод сжатия : С потерями
Размер потока : 3,67 Мбайт (3%)
Выравнивание : Разделение по промежуткам
Продолжительность промежутка : 500 мс. (12,49 видеокадров)
Время предзагрузки промежутка : 750 мс.

pb.wtf



Скачать Клипы с mc-nudes через торрент https://pic.kartinco.top/images/11/uu7iu.jpg Скачать, смотреть онлайн Клипы с mc-nudes бесплантно в хорошем качестве Описание: Клипы с сайта и рекомендую для эстетов, ни какой порнухи, просто эротика и красивая эротика, под приятную музыку. Nudity and ... 9.6 10 24
Info! Золотая раздача, скачанное не засчитывается.
Торрент: Зарегистрирован [2015-05-03 15:10] · скачан: 421 раз
Статус: √ проверено
Размер: 5.33 GB
Как cкачать? Как скачать Клипы с mc-nudes через торрент | UTorrent

28-11-2019 20:33  

Отключить всю рекламу на сайте

03-05-2015 19:14 Клипы с mc-nudes Скачать торрент  

нормальные титьки ... чё не скачать...pb.wtf



03-05-2015 22:37 Клипы с mc-nudes Скачать торрент  

да не толь ко титьки-то....pb.wtf



04-05-2015 07:11 Клипы с mc-nudes Скачать торрент  

pb.wtf



    Дорогой пользователь! Огромная просьба, поблагодарите релизера, оцените раздачу и оставьте свои комментарий, если Вы скачали Клипы с mc-nudes через торрент бесплатно!
    Комментировать посты могут только пользователи прошедшие не сложную регистрацию
    Показать сообщения:    

    Клипы с mc-nudes через торрент
    Скачать бесплатно Клипы с mc-nudes
    Клипы с mc-nudes скачать торрент
    Клипы с mc-nudes смотреть онлайн
    Cкачать фильм Клипы с mc-nudes бесплатно
    Клипы с mc-nudes скачать торрент в хорошем качестве
    Клипы с mc-nudes смотреть онлайн бесплатно в хорошем качестве


    Вы не можете начинать темы
    Вы не можете отвечать на сообщения
    Вы не можете редактировать свои сообщения
    Вы не можете удалять свои сообщения
    Вы не можете голосовать в опросах
    Вы не можете прикреплять файлы к сообщениям
    Вы можете скачивать файлы