Ссылка на приватное зеркало нашего сайта всего за 1$. Внимание количество ограничено!!!

2 сезон

iTunes

1 сезон

1

iTunes

iTunes

iTunes

1 сезон

RePack

30

ИГРА 18+

pack

ВАЖНО

!!Акция!!

Alien_RageХит недели

RePack

MK11
pack

Забери бонус

RePack

jed

!!Акция!!

Alien_Rage

RePack

fifa19

RePack

Assassins Creed: Odyssey

RePack

NEED FOR SPEED™ PAYBACK

4 сезон

9 сезон

Бесстыжие 9 сезон

Все сериалы

все сериалы на PB.wtf

RePack

FAR CRY 5
  

Молодая гвардия / Серии: 1-6 из 12 (Леонид Пляскин) [2015 г., Военный, драма, WEB-DLRip] pb.wtf

Молодая гвардия через торрент pb.wtf

Размер: 3.55 GB | Добавлен: 5 лет 5 мес. назад | Торрент скачан:573 раза
Скачать  

04-05-2015 00:21 Молодая гвардия Скачать торрент  

Молодая гвардияГод выпуска: 2015
Страна: Россия Профит
Жанр: Военный, драма
Продолжительность: 6x ~ 00:45:00

Режиссер: Леонид Пляскин
Продюссер: Игорь Толстунов, Сергей Козлов, Анна Кагарлицкая
Сценарий: Анна Антонец

Премьера в мире: 5 мая 2015 В ролях: Никита Тезин, Катерина Шпица, Юрий Борисов, Вячеслав Чепурченко, Ирина Горбачева, Юрий Чурсин, Владислав Кузнецов, Виктор Хориняк, Полина Пушкарук, Сергей Яковлев, Илья Кожухарь, Карина Гондагсазян, Иван Решетняк, Алексей Вертков, Лариса Шахворостова, Андрей Гусев, Анастасия Мытражик, Евгения Дмитриева, Василий Миролюбов, Максим Сапрыкин, Григорий Зельцер, Валерий Карпов, Сергей Яценюк, Илья Антоненко, Дмитрий Быковский-Ромашов, Николай Сердцев

Описание: Сюжет сериала опирался на неопровержимые факты, воспоминания очевидцев и стремился раскрыть правду о работе секретной антифашистской организации, которая называлась «Молодая гвардия» и действовала в оккупированном Краснодоне. Сюжет ленты существенно отличался от знаменитой экранизации культового исторического романа Александра Фадеева.
В основу увлекательного сюжета сериала легли события Отечественной войны с фашистской Германией, а именно молодогвардейское движение на Украине. Множество материала было собрано о деятельности молодежной организации «Молодая гвардия» в оккупированном Краснодоне и рассказано телезрителю в двенадцати серийном одноименном проекте. Сознательным комсомольцам-патриотам пришлось пережить и предательство, и фашистские застенки, и свободу.
Борьба молодогвардейцев с немецко-фашистскими захватчиками в реальной жизни 1942 года отличалась от ее романного описания. Хотя они, скорее всего, также расклеивали листовки, срывали отправку продуктов и молодежи в Германию, производили с риском для жизни затопление шахт, подрыв стратегически важных объектов. Их профессиональные действия загоняли немецкое командование в тупик, наводя на мысль о том, что в городе орудовали русские диверсанты, а не комсомольцы-подростки.


Качество: WEB-DLRip
Формат: AVI
Видео кодек: XviD
Аудио кодек: AC3
Видео: Xvid 720x400, 25fps, 1499kbps
Аудио: Dolby AC3, 44100Hz, stereo, 192kbps
Релиз от: Henderson19Скриншотыскриншот  скриншот  скриншот  скриншот  скриншот  скриншот  скриншот  скриншот  




General
Complete name : E:\4007\Молодая гвардия. 2015.WEBRip\01.avi
Format : AVI
Format/Info : Audio Video Interleave
File size : 600 MiB
Duration : 49mn 19s
Overall bit rate : 1 702 Kbps
Writing application : VirtualDubMod 1.5.10.3| (build 2550/release)
Writing library : VirtualDubMod build 2550/release

Video
ID : 0
Format : MPEG-4 Visual
Format profile : Advanced Simple@L5
Format settings, BVOP : 2
Format settings, QPel : No
Format settings, GMC : No warppoints
Format settings, Matrix : Default (MPEG)
Codec ID : XVID
Codec ID/Hint : XviD
Duration : 49mn 19s
Bit rate : 1 500 Kbps
Width : 720 pixels
Height : 400 pixels
Display aspect ratio : 16:9
Frame rate : 25.000 fps
Color space : YUV
Chroma subsampling : 4:2:0
Bit depth : 8 bits
Scan type : Progressive
Compression mode : Lossy
Bits/(Pixel*Frame) : 0.208
Stream size : 529 MiB (88%)
Writing library : XviD 1.2.1 (UTC 2008-12-04)

Audio
ID : 1
Format : AC-3
Format/Info : Audio Coding 3
Mode extension : CM (complete main)
Format settings, Endianness : Big
Codec ID : 2000
Duration : 49mn 19s
Bit rate mode : Constant
Bit rate : 192 Kbps
Channel(s) : 2 channels
Channel positions : Front: L R
Sampling rate : 44.1 KHz
Bit depth : 16 bits
Compression mode : Lossy
Stream size : 67.7 MiB (11%)
Alignment : Split accross interleaves
Interleave, duration : 40 ms (1.00 video frame)
Interleave, preload duration : 500 ms

Внимание! Раздача ведётся путём добавления новых серий; при каждом добавлении создаётся новый торрент-файл. Чтобы начать дозакачку новой серии, пользователям необходимо сделать следующее:
(1) остановить скачивание,
(2) удалить старый торрент-файл у себя из клиента (старые серии удалять не надо),
(3) скачать новый торрент-файл и запустить его у себя в клиенте вместо старого, при этом указать клиенту путь в старую папку куда и должно происходить скачивание новых серий.
Ваш клиент при этом должен произвести хеширование (проверку) старой папки (если не производит сам - помогите ему сделать это), и будет докачивать только те серии которых у вас ещё нет. Старые серии при этом не удаляются, а продолжают раздаваться!
Eсли вы уже удалили старые серии, то предотвратить повторную закачку старых серий можно, отжав галочку в соответствующих местах при запуске нового торрента.
Добавил с 4-6 серииpb.wtf



Скачать Молодая гвардия через торрент http://pic.kartinco.top/images/11/e9yiy.jpg Скачать фильм Молодая гвардия через торрент бесплантно в хорошем качестве Описание: Сюжет сериала опирался на неопровержимые факты, воспоминания очевидцев и стремился раскрыть правду о работе секретной ... 9.2 10 25
Торрент: Зарегистрирован [2015-05-04 17:22] · скачан: 573 раз
Статус: √ проверено
Размер: 3.55 GB
Как cкачать? Как скачать Молодая гвардия через торрент | qTorrent



Последний раз редактировалось: lug30 (2015-05-04 17:22), всего редактировалось 2 раз(а)

28-11-2019 20:33  

Отключить всю рекламу на сайте

04-05-2015 07:01 Молодая гвардия Скачать торрент  

Оперативно. Премьера только завтра.pb.wtf



04-05-2015 17:36 Молодая гвардия Скачать торрент  

Товарищ! Дай скорости!!!
Заранее пролетарское спасибо!pb.wtf
Klug30 писал(а):

раздаю!!!как погем...



04-05-2015 17:50 Молодая гвардия Скачать торрент  

Сорри, а что со звуком? Или только у меня?pb.wtf



04-05-2015 17:58 Молодая гвардия Скачать торрент  

Спасибо!pb.wtf



04-05-2015 19:44 Молодая гвардия Скачать торрент  

на злобу дня так сказать :zay:pb.wtf



05-05-2015 19:36 Молодая гвардия Скачать торрент  

Как можно было испоганить такую тему........pb.wtf



    Дорогой пользователь! Огромная просьба, поблагодарите релизера, оцените раздачу и оставьте свои комментарий, если Вы скачали Молодая гвардия через торрент бесплатно! Внесите свою лепту в развитие PiratBit!
    Комментировать посты могут только пользователи прошедшие не сложную регистрацию
    Показать сообщения:    

    Молодая гвардия через торрент
    Скачать бесплатно Молодая гвардия
    Молодая гвардия скачать торрент
    Молодая гвардия смотреть онлайн
    Cкачать фильм Молодая гвардия бесплатно
    Молодая гвардия скачать торрент в хорошем качестве
    Молодая гвардия смотреть онлайн бесплатно в хорошем качестве


    Вы не можете начинать темы
    Вы не можете отвечать на сообщения
    Вы не можете редактировать свои сообщения
    Вы не можете удалять свои сообщения
    Вы не можете голосовать в опросах
    Вы не можете прикреплять файлы к сообщениям
    Вы можете скачивать файлы