1 сезон

1 сезон

iTunes

1

КиноПоиск HD

Кинопоиск HD

iTunes

13

1 сезон

RePack

30

Ultimate

ВАЖНО

ИГРА 18+

pack

RePack

MK11
pack

Легкие деньги

RePack

jed

RePack

fifa19

RePack

RDR2

RePack

NEED FOR SPEED™ PAYBACK

4 сезон

9 сезон

Бесстыжие 9 сезон

Все сериалы

все сериалы на PB.wtf

RePack

FAR CRY 5
  
Magnet ссылка

Суета и движение / Hustle & Flow (Крэйг Брюэр / Craig Brewer) [2005, драма, мелодрама, криминал, BDRip-AVC, Профессиональный многоголосый (СТС)] pb.wtf

Суета и движение через торрент pb.wtf

Размер: 2.17 GB | Добавлен: 5 лет 11 мес. назад | Торрент скачан:165 раз
Скачать  

05-05-2015 09:45 Суета и движение Скачать торрент  

Суета и движение / Hustle & Flow
«The music will inspire them. The dream will unite them. This summer get crunk»


Год выпуска: 2005
Страна: США
Жанр: драма, мелодрама, криминал, музыка
Продолжительность: 01:56:21
Перевод: Профессиональный многоголосый (СТС)
Субтитры: русские (Russian), английские (English)
Режиссер: Крэйг Брюэр
В ролях: Терренс Ховард , Энтони Андерсон , Тэрин Мэннинг , Тараджи П. Хенсон , DJ Куаллс , Лудакрис , Пола Джей Паркер , Элиз Нил , Айзек Хейз , Джордан Хьюстон , Уильям Энграм , Бобби Сэндимани
Описание:
Рэппер ДиДжэй, а по совместительству сутенер, пытается организовать запись своего первого альбома, в чем ему помогают различные мемфисские знакомые. Возможно, это его первый и последний шанс добиться хоть чего-то в мире хип-хопа, поэтому, когда он узнает, что суперзвезда рэпа Скинни Блэк приезжает в его район, ДиДжэй, чтобы привлечь внимание Скинни, решает толкнуть ему свой лучший «товар»...

R - Лицам до 17 лет обязательно присутствие взрослого
Качество: BDRip-AVC (исходник Blu-ray)
Контейнер (Расширение): MKV
Видео кодек: AVC
Аудио кодек: AC3
Видео: 704x396 (16:9), 2482 Кбит/сек, 23,976 кадр/сек, 0,371 Бит/[Пиксели*Кадры]
Аудио: русский / AC3 / 2.0 / 48 kHz / 192 kbps / 16 bit |Профессиональный многоголосый (СТС)|
Навигация по главам(Чаптеры): естьАвтор рипа: Сообщество:

Код:

Format                                   : Matroska
Format version                           : Version 2
File size                                : 2.17 GiB
Duration                                 : 1h 56mn
Overall bit rate                         : 2 676 Kbps
Movie name                               : Sueta i dvizhenie.(2005).BDRip-AVC.[denis100]
Encoded date                             : UTC 2015-05-04 20:56:29
Writing application                      : mkvmerge v5.8.0 ('No Sleep / Pillow') built on Sep  2 2012 15:37:04
Writing library                          : libebml v1.2.3 + libmatroska v1.3.0

Video
ID                                       : 1
Format                                   : AVC
Format/Info                              : Advanced Video Codec
Format profile                           : High@L4.1
Format settings, CABAC                   : Yes
Format settings, ReFrames                : 11 frames
Codec ID                                 : V_MPEG4/ISO/AVC
Duration                                 : 1h 56mn
Bit rate                                 : 2 482 Kbps
Width                                    : 704 pixels
Height                                   : 396 pixels
Display aspect ratio                     : 16:9
Frame rate                               : 23.976 fps
Color space                              : YUV
Chroma subsampling                       : 4:2:0
Bit depth                                : 8 bits
Scan type                                : Progressive
Bits/(Pixel*Frame)                       : 0.371
Stream size                              : 1.98 GiB (91%)
Title                                    : Sueta i dvizhenie.(2005).BDRip-AVC.[denis100]
Writing library                          : x264 core 146 r2538 121396c
Encoding settings                        : cabac=1 / ref=11 / deblock=1:-3:-3 / analyse=0x3:0x133 / me=umh / subme=11 / psy=1 / psy_rd=1.00:0.15 / mixed_ref=1 / me_range=48 / chroma_me=1 / trellis=2 / 8x8dct=1 / cqm=0 / deadzone=21,11 / fast_pskip=0 / chroma_qp_offset=-3 / threads=6 / lookahead_threads=1 / sliced_threads=0 / nr=0 / decimate=1 / interlaced=0 / bluray_compat=0 / constrained_intra=0 / bframes=12 / b_pyramid=2 / b_adapt=2 / b_bias=0 / direct=3 / weightb=1 / open_gop=0 / weightp=2 / keyint=240 / keyint_min=23 / scenecut=40 / intra_refresh=0 / rc=2pass / mbtree=0 / bitrate=2482 / ratetol=1.0 / qcomp=0.60 / qpmin=0 / qpmax=69 / qpstep=4 / cplxblur=20.0 / qblur=0.5 / ip_ratio=1.40 / pb_ratio=1.30 / aq=1:1.00
Language                                 : English
Default                                  : Yes
Forced                                   : No

Audio
ID                                       : 2
Format                                   : AC-3
Format/Info                              : Audio Coding 3
Mode extension                           : CM (complete main)
Codec ID                                 : A_AC3
Duration                                 : 1h 56mn
Bit rate mode                            : Constant
Bit rate                                 : 192 Kbps
Channel(s)                               : 2 channels
Channel positions                        : Front: L R
Sampling rate                            : 48.0 KHz
Bit depth                                : 16 bits
Compression mode                         : Lossy
Stream size                              : 160 MiB (7%)
Title                                    : Многоголосый закадровый, СТС
Language                                 : Russian
Default                                  : Yes
Forced                                   : No

Text #1
ID                                       : 3
Format                                   : UTF-8
Codec ID                                 : S_TEXT/UTF8
Codec ID/Info                            : UTF-8 Plain Text
Title                                    : Russian
Language                                 : Russian
Default                                  : No
Forced                                   : No

Text #2
ID                                       : 4
Format                                   : UTF-8
Codec ID                                 : S_TEXT/UTF8
Codec ID/Info                            : UTF-8 Plain Text
Title                                    : English
Language                                 : English
Default                                  : No
Forced                                   : No

Menu
00:00:00.000                             : :Chapter 01
00:05:13.354                             : :Chapter 02
00:11:22.013                             : :Chapter 03
00:14:54.351                             : :Chapter 04
00:20:14.378                             : :Chapter 05
00:25:26.942                             : :Chapter 06
00:30:47.178                             : :Chapter 07
00:35:33.464                             : :Chapter 08
00:41:54.553                             : :Chapter 09
00:49:50.237                             : :Chapter 10
00:58:52.946                             : :Chapter 11
01:04:06.801                             : :Chapter 12
01:10:07.912                             : :Chapter 13
01:17:18.050                             : :Chapter 14
01:23:09.067                             : :Chapter 15
01:31:26.731                             : :Chapter 16
01:35:41.610                             : :Chapter 17
01:41:00.970                             : :Chapter 18
01:47:29.234                             : :Chapter 19

pb.wtf



Скачать Суета и движение через торрент http://i58.fastpic.ru/big/2015/0505/a3/3e41866f5f29841d0f4ecdf8a7927ba3.png Скачать фильм Суета и движение через торрент бесплантно в хорошем качестве Описание:Рэппер ДиДжэй, а по совместительству сутенер, пытается организовать запись своего первого альбома, в чем ему помогают различные ... 10 10 3
Торрент: Зарегистрирован [2015-05-05 09:45] · скачан: 165 раз
Статус: √ проверено
Размер: 2.17 GB
Как cкачать? Как скачать Суета и движение через торрент | UTorrent

28-11-2019 20:33  

Отключить всю рекламу на сайте

05-05-2015 16:30 Суета и движение Скачать торрент  

фильм классныйpb.wtf



    Дорогой пользователь! Огромная просьба, поблагодарите релизера, оцените раздачу и оставьте свои комментарий, если Вы скачали Суета и движение через торрент бесплатно! Внесите свою лепту в развитие PiratBit!
    Комментировать посты могут только пользователи прошедшие не сложную регистрацию
    Показать сообщения:    

    Суета и движение через торрент
    Скачать бесплатно Суета и движение
    Суета и движение скачать торрент
    Суета и движение смотреть онлайн
    Cкачать фильм Суета и движение бесплатно
    Суета и движение скачать торрент в хорошем качестве
    Суета и движение смотреть онлайн бесплатно в хорошем качестве


    Вы не можете начинать темы
    Вы не можете отвечать на сообщения
    Вы не можете редактировать свои сообщения
    Вы не можете удалять свои сообщения
    Вы не можете голосовать в опросах
    Вы не можете прикреплять файлы к сообщениям
    Вы можете скачивать файлы