Всегда рабочее зеркало без VPN и Proxy просто перед .vidak.icu напиши любое слово или цифру, Пример http://wrn9.vidak.icu

Лицензия

MVO

1 сезон

1

1 сезон

iTunes

1 сезон

13

1 сезон

Deluxe

pack

Рекомендуем

Repack

30

ВАЖНО

RePack

MK11

RePack

jed

RePack

fifa19

RePack

RDR2

RePack

NEED FOR SPEED™ PAYBACK

Кинопоиск HD

6 сезон

 Острые козырьки 6 сезон

Все сериалы

все сериалы на PB.wtf

RePack

FAR CRY 5
  
Magnet ссылка

Безграничный Бэтмен: Животные инстинкты / Batman Unlimited: Animal Instincts (Батч Лукич ) [2015, мультфильм, боевик, приключения, HDRip, Профессиональный многоголосый [Чистый звук] pb.wtf

Безграничный Бэтмен: Животные инстинкты через торрент pb.wtf

Размер: 1.46 GB | Добавлен: 7 лет 3 мес. назад | Торрент скачан:210 раз
Смотреть онлайн Безграничный Бэтмен: Животные инстинкты | Скачать    Ребята, помогите собрать деньги на оплату серверов!!!

05-05-2015 12:52 Безграничный Бэтмен: Животные инстинкты Скачать торрент  


Безграничный Бэтмен: Животные инстинкты / Batman Unlimited: Animal Instincts


ИНФОРМАЦИЯ:
Год выпуска:2015
Страна: США
Жанр: мультфильм, боевик, приключения
Продолжительность: 01:17:21
Перевод: Профессиональный многоголосый [Чистый звук]
Режиссер: Батч Лукич

В Ролях:


Уилл Фридел (Nightwing, озвучка), Лора Бэйли (Cheetah, озвучка), Крис Диамантополос (Green Arrow, озвучка), Роджер Крэйг Смит (Batman, озвучка), Дэна Снайдер (The Penguin, озвучка), Юрий Ловенталь (Red Robin, озвучка), Кит Шарабайка (Silverback, озвучка)

Описание:
В городе Готэм-сити злодей по прозвищу Пингвин организовал преступную группу Animilitia — горилла Сильвербек, гепард Гепардица, крокодил Убийца Крок и летучая мышь Мэн-Бэт. И противостоит им Бэтмен и его товарищи — Ночное Крыло, Красный Робин, Флэш, Зелёная Стрела.

  • Мировая премьера:12 мая 2015

    ТЕХ.ДАННЫЕ:
    Качество: HDRip
    Формат: AVI
    Видео кодек: XviD
    Аудио кодек: AC3
    Видео: XviD, 720x400 (16:9), 1854 kbps, 23,976 fps, 0,253 bpp
    Аудио №1: AC3 / 2.0 / 48 kHz / 384 kbps / RUS
    Аудио №2: AC3 / 5.1 / 48 kHz / 448 kbps / English



    Код:

    General
    Complete name                            : D:\Торенты\Batman.Unlimited.Animal.Instincts.2015.P.HDRip.avi
    Format                                   : AVI
    Format/Info                              : Audio Video Interleave
    File size                                : 1.46 GiB
    Duration                                 : 1h 17mn
    Overall bit rate                         : 2 700 Kbps
    Writing application                      : VirtualDubMod 1.5.10.3 | www.virtualdub-fr.org || (build 2550/release)
    Writing library                          : VirtualDubMod build 2550/release

    Video
    ID                                       : 0
    Format                                   : MPEG-4 Visual
    Format profile                           : Advanced [email protected]
    Format settings, BVOP                    : 2
    Format settings, QPel                    : No
    Format settings, GMC                     : No warppoints
    Format settings, Matrix                  : Default (MPEG)
    Muxing mode                              : Packed bitstream
    Codec ID                                 : XVID
    Codec ID/Hint                            : XviD
    Duration                                 : 1h 17mn
    Bit rate                                 : 1854 Kbps
    Width                                    : 720 pixels
    Height                                   : 400 pixels
    Display aspect ratio                     : 16:9
    Frame rate                               : 23.976 fps
    Color space                              : YUV
    Chroma subsampling                       : 4:2:0
    Bit depth                                : 8 bits
    Scan type                                : Progressive
    Compression mode                         : Lossy
    Bits/(Pixel*Frame)                       : 0.253
    Stream size                              : 968 MiB (65%)
    Writing library                          : XviD 73

    Audio #1
    ID                                       : 1
    Format                                   : AC-3
    Format/Info                              : Audio Coding 3
    Mode extension                           : CM (complete main)
    Codec ID                                 : 2000
    Duration                                 : 1h 17mn
    Bit rate mode                            : Constant
    Bit rate                                 : 384 Kbps
    Channel(s)                               : 2 channels
    Channel positions                        : Front: L R
    Sampling rate                            : 48.0 KHz
    Bit depth                                : 16 bits
    Compression mode                         : Lossy
    Stream size                              : 212 MiB (14%)
    Alignment                                : Split accross interleaves

    Audio #2
    ID                                       : 2
    Format                                   : AC-3
    Format/Info                              : Audio Coding 3
    Mode extension                           : CM (complete main)
    Codec ID                                 : 2000
    Duration                                 : 1h 17mn
    Bit rate mode                            : Constant
    Bit rate                                 : 448 Kbps
    Channel(s)                               : 6 channels
    Channel positions                        : Front: L C R, Side: L R, LFE
    Sampling rate                            : 48.0 KHz
    Bit depth                                : 16 bits
    Compression mode                         : Lossy
    Stream size                              : 248 MiB (17%)
    Alignment                                : Split accross interleaves

    Скриншоты:


    © Оформление by Ворон
    pb.wtf



  • Скачать Безграничный Бэтмен: Животные инстинкты через торрент https://pic1.kartinco.top/images/61/ordi9.jpg Скачать, смотреть онлайн Безграничный Бэтмен: Животные инстинкты бесплантно в хорошем качестве Описание: В городе Готэм-сити злодей по прозвищу Пингвин организовал преступную группу Animilitia — горилла Сильвербек, гепард Гепардица, ... 8.2 10 10
    Торрент: Зарегистрирован [2015-05-05 12:52] · скачан: 210 раз
    Статус: T временная
    Размер: 1.46 GB
    Как cкачать? Как скачать Безграничный Бэтмен: Животные инстинкты через торрент | UTorrent

    % Раздел Тема Автор DL S | L
    T Иностранные мультфильмы [ 1.43 GB ] Безграничный Бэтмен: Животные инстинкты / Batman Unlimited: Animal Instincts [2015 мультфильм HDRip многоголосый [Чистый звук] Ворон Скачать
    1 | 0
    Зарубежные Мультфильмы (BDRip 1080p, 720p, Blu-ray, BD-Remux) [ 4.01 GB ] Безграничный Бэтмен: Животные инстинкты / Batman Unlimited: Animal Instincts [2015 мультфильм BDRip 1080p многоголосый [Чистый звук] Ворон Скачать
    1 | 0

    28-11-2019 20:33  

    Отключить вcю реклaмy на сайте

      Дорогой пользователь! Огромная просьба, поблагодарите релизера, оцените раздачу и оставьте свои комментарий, если Вы скачали Безграничный Бэтмен: Животные инстинкты через торрент бесплатно!
      Комментировать посты могут только пользователи прошедшие не сложную регистрацию
      Показать сообщения:    

      Безграничный Бэтмен: Животные инстинкты через торрент
      Скачать бесплатно Безграничный Бэтмен: Животные инстинкты
      Безграничный Бэтмен: Животные инстинкты скачать торрент
      Безграничный Бэтмен: Животные инстинкты смотреть онлайн
      Cкачать фильм Безграничный Бэтмен: Животные инстинкты бесплатно
      Безграничный Бэтмен: Животные инстинкты скачать торрент в хорошем качестве
      Безграничный Бэтмен: Животные инстинкты смотреть онлайн бесплатно в хорошем качестве


      Вы не можете начинать темы
      Вы не можете отвечать на сообщения
      Вы не можете редактировать свои сообщения
      Вы не можете удалять свои сообщения
      Вы не можете голосовать в опросах
      Вы не можете прикреплять файлы к сообщениям
      Вы можете скачивать файлы