Ссылка на приватное зеркало нашего сайта всего за 1$. Внимание количество ограничено!!!

2 сезон

iTunes

1 сезон

1

iTunes

iTunes

iTunes

1 сезон

RePack

30

ИГРА 18+

pack

ВАЖНО

!!Акция!!

Alien_RageХит недели

RePack

MK11
pack

Забери бонус

RePack

jed

!!Акция!!

Alien_Rage

RePack

fifa19

RePack

Assassins Creed: Odyssey

RePack

NEED FOR SPEED™ PAYBACK

4 сезон

9 сезон

Бесстыжие 9 сезон

Все сериалы

все сериалы на PB.wtf

RePack

FAR CRY 5
  

Безграничный Бэтмен: Животные инстинкты / Batman Unlimited: Animal Instincts (Батч Лукич ) [2015, мультфильм, боевик, приключения, HDRip, Профессиональный многоголосый [Чистый звук] pb.wtf

Безграничный Бэтмен: Животные инстинкты через торрент pb.wtf

Размер: 1.43 GB | Добавлен: 5 лет 5 мес. назад | Торрент скачан:349 раз
Скачать  

05-05-2015 12:52 Безграничный Бэтмен: Животные инстинкты Скачать торрент  


Безграничный Бэтмен: Животные инстинкты / Batman Unlimited: Animal Instincts


ИНФОРМАЦИЯ:
Год выпуска:2015
Страна: США
Жанр: мультфильм, боевик, приключения
Продолжительность: 01:17:21
Перевод: Профессиональный многоголосый [Чистый звук]
Субтитры: английские,
Режиссер: Батч Лукич

В Ролях:


Уилл Фридел (Nightwing, озвучка), Лора Бэйли (Cheetah, озвучка), Крис Диамантополос (Green Arrow, озвучка), Роджер Крэйг Смит (Batman, озвучка), Дэна Снайдер (The Penguin, озвучка), Юрий Ловенталь (Red Robin, озвучка), Кит Шарабайка (Silverback, озвучка)

Описание:
В городе Готэм-сити злодей по прозвищу Пингвин организовал преступную группу Animilitia — горилла Сильвербек, гепард Гепардица, крокодил Убийца Крок и летучая мышь Мэн-Бэт. И противостоит им Бэтмен и его товарищи — Ночное Крыло, Красный Робин, Флэш, Зелёная Стрела.

  • Мировая премьера:12 мая 2015

    ТЕХ.ДАННЫЕ:
    Качество: HDRip-AVC
    Формат: MKV
    Видео кодек: AVC
    Аудио кодек: AC3
    Видео: AVC, 1024x576 (16:9), 1823 kbps, 23,976 fps, 0,129 bpp
    Аудио №1: русский / AC3 / 2.0 / 48 kHz / 384 kbps / 16 bit ||
    Аудио №2: английский / AC3 / 5.1 / 48 kHz / 384 kbps / 16 bit
    Навигация по главам: есть



    Код:

    General
    Unique ID                                : 227786782049289266667872901055019226699 (0xAB5E23715B461AAD8A6BF5EF9948164B)
    Complete name                            : D:\Торенты\Batman.Unlimited.Animal.Instincts.2015.P.Eng.AVC.BluRay.x264.mkv
    Format                                   : Matroska
    Format version                           : Version 4 / Version 2
    File size                                : 1.43 GiB
    Duration                                 : 1h 17mn
    Overall bit rate                         : 2 644 Kbps
    Encoded date                             : UTC 2010-02-22 21:41:31
    Writing application                      : mkvmerge v5.9.0 ('On The Loose') built on Dec  9 2012 15:37:01
    Writing library                          : libebml v1.3.0 + libmatroska v1.4.0

    Video
    ID                                       : 1
    Format                                   : AVC
    Format/Info                              : Advanced Video Codec
    Format profile                           : High@L1.3
    Format settings, CABAC                   : No
    Format settings, ReFrames                : 1 frame
    Format settings, GOP                     : M=1, N=12
    Muxing mode                              : Header stripping
    Codec ID                                 : V_MPEG4/ISO/AVC
    Duration                                 : 1h 17mn
    Bit rate                                 : 1 824 Kbps
    Width                                    : 1 024 pixels
    Height                                   : 576 pixels
    Display aspect ratio                     : 16:9
    Frame rate mode                          : Variable
    Frame rate                               : 23.976 fps
    Color space                              : YUV
    Chroma subsampling                       : 4:2:0
    Bit depth                                : 8 bits
    Scan type                                : Progressive
    Bits/(Pixel*Frame)                       : 0.129
    Stream size                              : 1 009 MiB (69%)
    Language                                 : English
    Default                                  : Yes
    Forced                                   : No

    Audio #1
    ID                                       : 2
    Format                                   : AC-3
    Format/Info                              : Audio Coding 3
    Mode extension                           : CM (complete main)
    Muxing mode                              : Header stripping
    Codec ID                                 : A_AC3
    Duration                                 : 1h 17mn
    Bit rate mode                            : Constant
    Bit rate                                 : 384 Kbps
    Channel(s)                               : 2 channels
    Channel positions                        : Front: L R
    Sampling rate                            : 48.0 KHz
    Bit depth                                : 16 bits
    Compression mode                         : Lossy
    Stream size                              : 212 MiB (15%)
    Language                                 : Russian
    Default                                  : Yes
    Forced                                   : No

    Audio #2
    ID                                       : 3
    Format                                   : AC-3
    Format/Info                              : Audio Coding 3
    Mode extension                           : CM (complete main)
    Muxing mode                              : Header stripping
    Codec ID                                 : A_AC3
    Duration                                 : 1h 17mn
    Bit rate mode                            : Constant
    Bit rate                                 : 384 Kbps
    Channel(s)                               : 6 channels
    Channel positions                        : Front: L C R, Side: L R, LFE
    Sampling rate                            : 48.0 KHz
    Bit depth                                : 16 bits
    Compression mode                         : Lossy
    Stream size                              : 212 MiB (15%)
    Language                                 : English
    Default                                  : No
    Forced                                   : No

    Text
    ID                                       : 4
    Format                                   : VobSub
    Muxing mode                              : zlib
    Codec ID                                 : S_VOBSUB
    Codec ID/Info                            : The same subtitle format used on DVDs
    Language                                 : English
    Default                                  : No
    Forced                                   : No

    Menu
    00:00:00.000                             : en:00:00:00.000
    00:10:36.094                             : en:00:10:36.094
    00:21:05.014                             : en:00:21:05.014
    00:29:05.744                             : en:00:29:05.744
    00:42:19.620                             : en:00:42:19.620
    00:50:51.674                             : en:00:50:51.674
    01:00:26.540                             : en:01:00:26.540
    01:09:28.206                             : en:01:09:28.206
    01:14:47.900                             : en:01:14:47.900

    Скриншоты:


    © Оформление by Ворон
    pb.wtf



  • Скачать Безграничный Бэтмен: Животные инстинкты через торрент http://pic.kartinco.top/images/6/ordi9.jpg Скачать фильм Безграничный Бэтмен: Животные инстинкты через торрент бесплантно в хорошем качестве Описание: В городе Готэм-сити злодей по прозвищу Пингвин организовал преступную группу Animilitia — горилла Сильвербек, гепард Гепардица, ... 7.9 10 7
    Торрент: Зарегистрирован [2015-05-05 12:52] · скачан: 349 раз
    Статус: T временная
    Размер: 1.43 GB
    Как cкачать? Как скачать Безграничный Бэтмен: Животные инстинкты через торрент | qTorrent

    % Раздел Тема Автор DL S | L
    Зарубежные Мультфильмы (BDRip 1080p, 720p, Blu-ray, BD-Remux) [ 4.01 GB ] Безграничный Бэтмен: Животные инстинкты / Batman Unlimited: Animal Instincts [2015 мультфильм BDRip 1080p многоголосый [Чистый звук] Ворон Скачать
    1 | 0
    T Иностранные мультфильмы [ 1.46 GB ] Безграничный Бэтмен: Животные инстинкты / Batman Unlimited: Animal Instincts [2015 мультфильм HDRip многоголосый [Чистый звук] Ворон Скачать
    1 | 0

    28-11-2019 20:33  

    Отключить всю рекламу на сайте

    05-05-2015 14:46 Безграничный Бэтмен: Животные инстинкты Скачать торрент  

    я бы сказал что вездесущий а не безграничный)pb.wtf



    07-05-2015 18:38 Безграничный Бэтмен: Животные инстинкты Скачать торрент  

    В голову приходит только: вау-вау палахче.pb.wtf



      Дорогой пользователь! Огромная просьба, поблагодарите релизера, оцените раздачу и оставьте свои комментарий, если Вы скачали Безграничный Бэтмен: Животные инстинкты через торрент бесплатно! Внесите свою лепту в развитие PiratBit!
      Комментировать посты могут только пользователи прошедшие не сложную регистрацию
      Показать сообщения:    

      Безграничный Бэтмен: Животные инстинкты через торрент
      Скачать бесплатно Безграничный Бэтмен: Животные инстинкты
      Безграничный Бэтмен: Животные инстинкты скачать торрент
      Безграничный Бэтмен: Животные инстинкты смотреть онлайн
      Cкачать фильм Безграничный Бэтмен: Животные инстинкты бесплатно
      Безграничный Бэтмен: Животные инстинкты скачать торрент в хорошем качестве
      Безграничный Бэтмен: Животные инстинкты смотреть онлайн бесплатно в хорошем качестве


      Вы не можете начинать темы
      Вы не можете отвечать на сообщения
      Вы не можете редактировать свои сообщения
      Вы не можете удалять свои сообщения
      Вы не можете голосовать в опросах
      Вы не можете прикреплять файлы к сообщениям
      Вы можете скачивать файлы