Ссылка на приватное зеркало всего за 1$. Внимание количество ограничено!!!

OK

1+1

iTunes

мы

OK

1

WEB-DLRip

Джокер

Пифагор

Ведьмак / The Witcher сериал

Лицензия

ПШазам

ОК

Оно 2

iTunes

30
pack

Вам бонус

ВАЖНО

!!Акция!!

Alien_RageХит недели

RePack

Resident Evil 21

ИГРА 18+

pack

RePack

jed

!!Акция!!

Alien_Rage

RePack

fifa19

RePack

Assassins Creed: Odyssey

RePack

NEED FOR SPEED™ PAYBACK

4 сезон

9 сезон

Бесстыжие 9 сезон

Все сериалы

все сериалы на PB.wtf

RePack

FAR CRY 5
  

Велкам хом (Ангелина Никонова ) [2013, драма, комедия, WEB-DLRip, Профессиональное (многоголосное) [iTunes] pb.wtf

Велкам хом через торрент pb.wtf

Размер: 1.46 GB | Добавлен: 4 года 8 мес. назад | Торрент скачан:336 раз
Скачать  

05-05-2015 13:11 Велкам хом Скачать торрент  


Велкам хом


ИНФОРМАЦИЯ:
Год выпуска:2013
Страна: Россия
Жанр: драма, комедия
Продолжительность: 01:55:36
Перевод: Профессиональное (многоголосное) [iTunes]
Режиссер: Ангелина Никонова

В Ролях:


Карен Карагулян (Babken), Ольга Дыховичная, Остин Кеннеди (Player 1), Ара Воланд (Hamlet / Hamomile), Кори Бордман (Poker Dealer), Гвен Косак (Passenger in airport, в титрах не указана), Эдвард Бейкер-Дьюли

Описание:
Это история о людях, потерявших чувство принадлежности к определённой географической точке, к тому месту, которое мы называем домом. Всех их объединяет жажда иллюзорного успеха, в гонке за которым многие проводят годы и десятилетия, жертвуя своими первоначальными ценностями.
Герои фильма - не самые несчастные люди на свете, но у всех них непростая жизнь, которую каждый избрал добровольно, надеясь реализовать свои представления о благополучии. Нью-Йорк для них - поле боя, где они ежедневно борются за свою мечту.

  • Мировая премьера:10 июля 2014

    ТЕХ.ДАННЫЕ:
    Качество: WEB-DLRip
    Формат: AVI
    Видео кодек: XviD
    Аудио кодек: AC3
    Видео: XviD, 720x384 (1.875), 1411 kbps, 24 fps, 0,202 bpp
    Аудио: AC3 / 5.1 / 48 kHz / 384 kbps / 16 bit



    Код:

    General
    Complete name                            : D:\Торенты\Welcam.Hom.2013.P.WEB-DLRip.avi
    Format                                   : AVI
    Format/Info                              : Audio Video Interleave
    File size                                : 1.46 GiB
    Duration                                 : 1h 55mn
    Overall bit rate                         : 1 804 Kbps
    Movie name                               : Welcam.Hom.2013.P.WEB-DLRip.ELEKTRI4KA.uniongang.tv
    Writing application                      : VirtualDubMod 1.5.10.3 | www.virtualdub-fr.org || (build 2550/release)
    Copyright                                : UNIONGANG&RUSTORRENTS

    Video
    ID                                       : 0
    Format                                   : MPEG-4 Visual
    Format profile                           : Advanced Simple@L5
    Format settings, BVOP                    : 2
    Format settings, QPel                    : No
    Format settings, GMC                     : No warppoints
    Format settings, Matrix                  : Default (MPEG)
    Muxing mode                              : Packed bitstream
    Codec ID                                 : XVID
    Codec ID/Hint                            : XviD
    Duration                                 : 1h 55mn
    Bit rate                                 : 1411 Kbps
    Width                                    : 720 pixels
    Height                                   : 384 pixels
    Display aspect ratio                     : 1.875
    Frame rate                               : 24.000 fps
    Color space                              : YUV
    Chroma subsampling                       : 4:2:0
    Bit depth                                : 8 bits
    Scan type                                : Progressive
    Compression mode                         : Lossy
    Bits/(Pixel*Frame)                       : 0.202
    Stream size                              : 1.08 GiB (74%)
    Writing library                          : XviD 73

    Audio
    ID                                       : 1
    Format                                   : AC-3
    Format/Info                              : Audio Coding 3
    Mode extension                           : CM (complete main)
    Codec ID                                 : 2000
    Duration                                 : 1h 55mn
    Bit rate mode                            : Constant
    Bit rate                                 : 384 Kbps
    Channel(s)                               : 6 channels
    Channel positions                        : Front: L C R, Side: L R, LFE
    Sampling rate                            : 48.0 KHz
    Bit depth                                : 16 bits
    Compression mode                         : Lossy
    Stream size                              : 318 MiB (21%)
    Alignment                                : Split accross interleaves

    Скриншоты:


    © Оформление by Ворон
    pb.wtf



  • Скачать Велкам хом через торрент http://pic.kartinco.top/images/6/ordi9.jpg Скачать фильм Велкам хом через торрент бесплантно в хорошем качестве Описание: Это история о людях, потерявших чувство принадлежности к определённой географической точке, к тому месту, которое мы называем ... 9.4 10 7
    Торрент: Зарегистрирован [2015-05-05 13:11] · скачан: 336 раз
    Статус: √ проверено
    Размер: 1.46 GB
    Как cкачать? Как скачать Велкам хом через торрент | qTorrent

    % Раздел Тема Автор DL S | L
    Наши фильмы (HD, WEB-DL 720p, 1080p) [ 4.86 GB ] Велкам хом [2013 HDTV 1080i ] Ворон Скачать
    1 | 0
    Наши новые фильмы 2013 [ 2.18 GB ] Велкам хом [2013 WEB-DLRip многоголосый закадровый " "] coc900 Скачать
    1 | 0
    Наши фильмы (HD, WEB-DL 720p, 1080p) [ 3.56 GB ] Велкам хом [2013 WEB-DL 720p Ворон Скачать
    1 | 0

    28-11-2019 20:33  

    Отключить всю рекламу на сайте

    05-05-2015 16:02 Велкам хом Скачать торрент  

    как фильм?pb.wtf



    05-05-2015 16:29 Велкам хом Скачать торрент  

    буду смотретьpb.wtf



      Дорогой пользователь! Огромная просьба, поблагодарите релизера, оцените раздачу и оставьте свои комментарий, если Вы скачали Велкам хом через торрент бесплатно! Внесите свою лепту в развитие PiratBit!
      Комментировать посты могут только пользователи прошедшие не сложную регистрацию
      Показать сообщения:    

      Велкам хом через торрент
      Скачать бесплатно Велкам хом
      Велкам хом скачать торрент
      Велкам хом смотреть онлайн
      Cкачать фильм Велкам хом бесплатно
      Велкам хом скачать торрент в хорошем качестве
      Велкам хом смотреть онлайн бесплатно в хорошем качестве


      Вы не можете начинать темы
      Вы не можете отвечать на сообщения
      Вы не можете редактировать свои сообщения
      Вы не можете удалять свои сообщения
      Вы не можете голосовать в опросах
      Вы не можете прикреплять файлы к сообщениям
      Вы можете скачивать файлы