Присоединяйтесь к нам в Telegram!, здесь всегда актуальный адрес сайта, оперативная поддержка и многое другое!!

>

5.9

iTunes

7.4

iTunes

9.4

1 сезон

1

7.4

2 сезон

7.2

iTunes

7.3

1 сезон

13

6.1

iTunes

8.3

GOG

30

ULTIMATE

pack

9.9

Лицензия

ВАЖНО

ИГРА 18+

pack

7.3

RePack

MK11

7.7

RePack

jed

7.8

RePack

fifa19

8.5

RePack

RDR2

RePack

NEED FOR SPEED™ PAYBACK

5 сезон

9 сезон

Бесстыжие 9 сезон

Все сериалы

все сериалы на PB.wtf

RePack

FAR CRY 5

Anonymous, добрый вечер, мы катастрофически не успеваем собрать деньги на оплату серверов, помогите нам пожалуйста 5,10,15р., для нас важна любая помощь . В качестве благодарности мы отключим Вам всю рекламу на сайте (укажите свой ник в строку Ваше имя)!

×
  
Magnet ссылка

Клипы с Hegre-Art / The girls of Hegre-Art (Hegre-Art) [2015 г., Adult erotic music clips, WEB-DLRip 720p, Оригинал] pb.wtf

Клипы с Hegre-Art через торрент pb.wtf

Качают: 1 [ 0 KB/s ]
Размер: 2.67 GB | Добавлен: 6 лет 6 мес. назад | Торрент скачан:387 раз
Смотреть онлайн Клипы с Hegre-Art | Скачать    Ребята, помогите собрать деньги на оплату серверов!!!

05-05-2015 13:20 Клипы с Hegre-Art Скачать торрент  

Клипы с Hegre-Art / The girls of Hegre-Art
Год выпуска: 2015
Страна: All World
Жанр: Adult erotic music clips
Перевод: Оригинал

Режиссер: Hegre-Art

Описание:

Клипы с сайта Hegre-Art и рекомендую для эстетов, ни какой порнухи,
просто эротика и красивая эротика, под приятную музыку.
Nudity and beauty of women in all its forms portrait of woman, erotic, sexy, lingerie, bikini,
striptease, nsfw, Playboy and more! Art nude, naked people, eroticism, sensuality, but NOT porn!
01. Alya Baroque [06:15]
02. Alya Ballerina [04:23]
03. Alya Kitsch [06:09]
04. Amandine Magic [06:05]
05. Anais Photo Session [03:44]
06. Anna S. - Shaving [08:42]
07. Anna S. - Athlete [05:19]
08. Anna Sensual Massage [05:32]
09. Dasha - Goddess of the Palace [05:15]
10. Dasha Golden Girl [05:14]
11. Dasha On the Terrace [03:59]
12. Evi - Body Pump [05:03]
13. Evi Sensual Massage [06:33]
14. Evi Slippery [04:51]
15. Evi White Sheets [05:45]
16. Linda L. - Monsoon Rain [05:04]
17. Luba Backstage [06:12]
18. Masha - Manhattan [04:50]
19. Nude Night Disco [06:02]
20. Sian - Intimate Massage [04:43]
Качество: WEB-DLRip 720p
Формат: MP4
Видео кодек: H.264
Аудио кодек: AAC
Видео: AVC, 1280x720 (16:9), 25.000 fps, 3 555 Kbps (0.154 bit/pixel)
Аудио#1: AAC LC, 44.1 KHz, 2 ch, 152 Kbps, VBR
скриншот   скриншот   скриншот   скриншот   скриншот   скриншот  
скриншот   скриншот   скриншот   скриншот   скриншот   скриншот  

Общее
Полное имя : C:\Раздача\Клипы\The girls of Hegre-Art\01. Alya Baroque.mp4
Формат : MPEG-4
Профиль формата : Base Media
Идентификатор кодека : isom
Размер файла : 161 Мбайт
Продолжительность : 6 м. 15 с.
Режим общего битрейта : Переменный
Общий поток : 3602 Кбит/сек
Название фильма : Alya Baroque
Исполнитель : Petter Hegre
Программа кодирования : Lavf55.19.104
Правообладатель : Hegre-Art.com

Видео
Идентификатор : 1
Формат : AVC
Формат/Информация : Advanced Video Codec
Профиль формата : Main@L3.1
Параметр CABAC формата : Да
Параметр ReFrames формата : 4 кадра
Идентификатор кодека : avc1
Идентификатор кодека/Информация : Advanced Video Coding
Продолжительность : 6 м. 15 с.
Битрейт : 3555 Кбит/сек
Ширина : 1280 пикселей
Высота : 720 пикселей
Соотношение сторон : 16:9
Режим частоты кадров : Постоянный
Частота кадров : 25,000 кадров/сек
Цветовое пространство : YUV
Субдискретизация насыщенности : 4:2:0
Битовая глубина : 8 бит
Тип развёртки : Прогрессивная
Бит/(Пиксели*Кадры) : 0.154
Размер потока : 154 Мбайт (96%)
Библиотека кодирования : x264 core 119
Настройки программы : cabac=1 / ref=1 / deblock=1:0:0 / analyse=0x1:0x1 / me=dia / subme=1 / psy=1 / psy_rd=1.00:0.00 / mixed_ref=0 / me_range=16 / chroma_me=1 / trellis=0 / 8x8dct=0 / cqm=0 / deadzone=21,11 / fast_pskip=1 / chroma_qp_offset=0 / threads=6 / sliced_threads=0 / nr=0 / decimate=1 / interlaced=0 / bluray_compat=0 / constrained_intra=0 / bframes=3 / b_pyramid=2 / b_adapt=1 / b_bias=0 / direct=1 / weightb=1 / open_gop=0 / weightp=1 / keyint=250 / keyint_min=25 / scenecut=40 / intra_refresh=0 / rc=abr / mbtree=0 / bitrate=3555 / ratetol=1.0 / qcomp=0.60 / qpmin=0 / qpmax=69 / qpstep=4 / ip_ratio=1.40 / pb_ratio=1.30 / aq=1:1.00

Аудио
Идентификатор : 2
Формат : AAC
Формат/Информация : Advanced Audio Codec
Профиль формата : LC
Идентификатор кодека : 40
Продолжительность : 6 м. 15 с.
Вид битрейта : Переменный
Битрейт : 152 Кбит/сек
Максимальный битрейт : 192 Кбит/сек
Каналы : 2 канала
Расположение каналов : Front: L R
Частота : 44,1 КГц
Метод сжатия : С потерями
Размер потока : 6,81 Мбайт (4%)

pb.wtf



Скачать Клипы с Hegre-Art через торрент https://pic.kartinco.top/images/11/3vmfa.jpg Скачать, смотреть онлайн Клипы с Hegre-Art бесплантно в хорошем качестве Описание:Клипы с сайта Hegre-Art и рекомендую для эстетов, ни какой порнухи, просто эротика и красивая эротика, под приятную музыку.Nudity ... 9.5 10 25
Info! Серебряная раздача, засчитывается только 50% скачанного.
Торрент: Зарегистрирован [2015-05-05 13:20] · скачан: 387 раз
Статус: √ проверено
Размер: 2.67 GB
Как cкачать? Как скачать Клипы с Hegre-Art через торрент | UTorrent

28-11-2019 20:33  

Отключить всю рекламу на сайте

    Дорогой пользователь! Огромная просьба, поблагодарите релизера, оцените раздачу и оставьте свои комментарий, если Вы скачали Клипы с Hegre-Art через торрент бесплатно!
    Комментировать посты могут только пользователи прошедшие не сложную регистрацию
    Показать сообщения:    

    Клипы с Hegre-Art через торрент
    Скачать бесплатно Клипы с Hegre-Art
    Клипы с Hegre-Art скачать торрент
    Клипы с Hegre-Art смотреть онлайн
    Cкачать фильм Клипы с Hegre-Art бесплатно
    Клипы с Hegre-Art скачать торрент в хорошем качестве
    Клипы с Hegre-Art смотреть онлайн бесплатно в хорошем качестве


    Вы не можете начинать темы
    Вы не можете отвечать на сообщения
    Вы не можете редактировать свои сообщения
    Вы не можете удалять свои сообщения
    Вы не можете голосовать в опросах
    Вы не можете прикреплять файлы к сообщениям
    Вы можете скачивать файлы