Death Stranding+DLC+АВТОАКТИВАЦИЯ

iTunes

iTunes

iTunes

1

iTunes

iTunes

iTunes

iTunes

iTunes

30
pack

$ от Little Big

ВАЖНО

!!Акция!!

Alien_RageХит недели

RePack

Resident Evil 21

ИГРА 18+

pack

RePack

jed

!!Акция!!

Alien_Rage

RePack

fifa19

RePack

Assassins Creed: Odyssey

RePack

NEED FOR SPEED™ PAYBACK

4 сезон

9 сезон

Бесстыжие 9 сезон

Все сериалы

все сериалы на PB.wtf

RePack

FAR CRY 5
  

Модная штучка / After the Ball (Шон Гэррити ) [2015, комедия, WEB-DL 1080p, Дубляж - Лицензия / iTunes] pb.wtf

Модная штучка через торрент pb.wtf

Размер: 3.89 GB | Добавлен: 5 лет 2 мес. назад | Торрент скачан:255 раз
Скачать  

05-05-2015 15:00 Модная штучка Скачать торрент  


Модная штучка / After the Ball
«Золушки всегда в тренде»

ИНФОРМАЦИЯ:
Год выпуска:2015
Страна: Канада
Жанр: комедия
Продолжительность: 01:37:48
Перевод: Дубляж - [Лицензия / iTunes]
Режиссер: Шон Гэррити

В Ролях:


Портия Даблдэй (Kate / Nate), Марк-Андре Гронден (Daniel), Крис Нот (Lee), Лорен Холли (Elise), Натали Крилл (Tannis), Анна Хопкинс (Simone), Давид Микаэль (Maurice), Мими Кузык (Bella), Карло Рота (Richard), Колин Мохри (Colin), Майкл Манчини (Receptionist), Лола Таш (Polly)

Описание:
Мечта Кейт - стать дизайнером модного дома. Но несмотря на то, что она обладает ярким талантом, она не может получить эту работу... Никто не доверяет дочери гуру розничных магазинов готовой одежды, «навеянной» теми самыми дизайнерами «Высокой моды», на которых так хочет работать Кейт. Кто же захочет иметь шпиона при рождении новых фасонов и горячих трендов? И тогда она пускается на хитрость, которая приводит ее к успеху и не только в карьере...

  • Мировая премьера:27 февраля 2015

    ТЕХ.ДАННЫЕ:
    Качество: WEB-DL 1080p
    Формат: MKV
    Видео кодек: AVC
    Аудио кодек: AC3
    Видео: AVC, 1920x1036 (1.853), 5192 kbps, 25 fps, 0,104 bpp
    Аудио: русский / AC3 / 5.1 / 48 kHz / 384 kbps / 16 bit ||
    Навигация по главам: есть



    Код:

    General
    Unique ID                                : 175913099288322994567910265584667691926 (0x8457A16BEAC89764A098BF86631D8B96)
    Complete name                            : D:\Торенты\After.the.Ball.2015.D.WEB-DL.1080p.mkv
    Format                                   : Matroska
    Format version                           : Version 4 / Version 2
    File size                                : 3.89 GiB
    Duration                                 : 1h 37mn
    Overall bit rate                         : 5 690 Kbps
    Encoded date                             : UTC 2015-05-04 21:59:17
    Writing application                      : mkvmerge v6.9.1 ('Blue Panther') 64bit built on Apr 18 2014 18:23:38
    Writing library                          : libebml v1.3.0 + libmatroska v1.4.1

    Video
    ID                                       : 1
    Format                                   : AVC
    Format/Info                              : Advanced Video Codec
    Format profile                           : High@L4.0
    Format settings, CABAC                   : Yes
    Format settings, ReFrames                : 4 frames
    Codec ID                                 : V_MPEG4/ISO/AVC
    Duration                                 : 1h 37mn
    Bit rate                                 : 5 193 Kbps
    Width                                    : 1 920 pixels
    Height                                   : 1 036 pixels
    Display aspect ratio                     : 1.853
    Frame rate                               : 25.000 fps
    Color space                              : YUV
    Chroma subsampling                       : 4:2:0
    Bit depth                                : 8 bits
    Scan type                                : Progressive
    Bits/(Pixel*Frame)                       : 0.104
    Stream size                              : 3.55 GiB (91%)
    Language                                 : English
    Default                                  : Yes
    Forced                                   : No
    Color primaries                          : BT.709-5, BT.1361, IEC 61966-2-4, SMPTE RP177
    Transfer characteristics                 : BT.709-5, BT.1361
    Matrix coefficients                      : BT.709-5, BT.1361, IEC 61966-2-4 709, SMPTE RP177

    Audio
    ID                                       : 2
    Format                                   : AC-3
    Format/Info                              : Audio Coding 3
    Mode extension                           : CM (complete main)
    Codec ID                                 : A_AC3
    Duration                                 : 1h 37mn
    Bit rate mode                            : Constant
    Bit rate                                 : 384 Kbps
    Channel(s)                               : 6 channels
    Channel positions                        : Front: L C R, Side: L R, LFE
    Sampling rate                            : 48.0 KHz
    Bit depth                                : 16 bits
    Compression mode                         : Lossy
    Stream size                              : 269 MiB (7%)
    Language                                 : Russian
    Default                                  : Yes
    Forced                                   : No

    Menu
    00:00:00.000                             : en:Глава 1
    00:05:28.000                             : en:Глава 2
    00:12:17.000                             : en:Глава 3
    00:16:16.000                             : en:Глава 4
    00:21:57.000                             : en:Глава 5
    00:27:01.000                             : en:Глава 6
    00:32:49.000                             : en:Глава 7
    00:37:27.000                             : en:Глава 8
    00:42:14.000                             : en:Глава 9
    00:48:22.000                             : en:Глава 10
    00:54:03.000                             : en:Глава 11
    00:59:28.000                             : en:Глава 12
    01:06:12.000                             : en:Глава 13
    01:10:14.000                             : en:Глава 14
    01:15:34.000                             : en:Глава 15
    01:20:29.000                             : en:Глава 16
    01:26:21.000                             : en:Глава 17
    01:32:13.000                             : en:Глава 18

    Скриншоты:


    © Оформление by Ворон
    pb.wtf



  • Скачать Модная штучка через торрент http://pic.kartinco.top/images/6/ordi9.jpg Скачать фильм Модная штучка через торрент бесплантно в хорошем качестве Описание: Мечта Кейт - стать дизайнером модного дома. Но несмотря на то, что она обладает ярким талантом, она не может получить эту ... 10 10 7
    Info! Золотая раздача, скачанное не засчитывается.
    Торрент: Зарегистрирован [2015-05-05 15:00] · скачан: 255 раз
    Статус: √ проверено
    Размер: 3.89 GB
    Как cкачать? Как скачать Модная штучка через торрент | qTorrent

    % Раздел Тема Автор DL S | L
    Фильмы 2015 [DVDrip, WEB-DLRip, HDrip] [ 1.46 GB ] Модная штучка / After the Ball [2015 WEB-DLRip - / ] Ворон Скачать
    1 | 0

    28-11-2019 20:33  

    Отключить всю рекламу на сайте

      Дорогой пользователь! Огромная просьба, поблагодарите релизера, оцените раздачу и оставьте свои комментарий, если Вы скачали Модная штучка через торрент бесплатно! Внесите свою лепту в развитие PiratBit!
      Комментировать посты могут только пользователи прошедшие не сложную регистрацию
      Показать сообщения:    

      Модная штучка через торрент
      Скачать бесплатно Модная штучка
      Модная штучка скачать торрент
      Модная штучка смотреть онлайн
      Cкачать фильм Модная штучка бесплатно
      Модная штучка скачать торрент в хорошем качестве
      Модная штучка смотреть онлайн бесплатно в хорошем качестве


      Вы не можете начинать темы
      Вы не можете отвечать на сообщения
      Вы не можете редактировать свои сообщения
      Вы не можете удалять свои сообщения
      Вы не можете голосовать в опросах
      Вы не можете прикреплять файлы к сообщениям
      Вы можете скачивать файлы