Ссылка на приватное зеркало всего за 1$. Внимание количество ограничено!!!

iTunes

iTunes

iTunes

1

iTunes

iTunes

iTunes

iTunes

iTunes

30
pack

$ от Little Big

ВАЖНО

!!Акция!!

Alien_RageХит недели

RePack

Resident Evil 21

ИГРА 18+

pack

RePack

jed

!!Акция!!

Alien_Rage

RePack

fifa19

RePack

Assassins Creed: Odyssey

RePack

NEED FOR SPEED™ PAYBACK

4 сезон

9 сезон

Бесстыжие 9 сезон

Все сериалы

все сериалы на PB.wtf

RePack

FAR CRY 5
  

Красная тропа 90 / Red Trail 90 (Глен Шульц) [2014 г., триллер, WEB-DLRip 720p, Любительский двухголосый] [2D] pb.wtf

Красная тропа 90 через торрент pb.wtf

Размер: 1.7 GB | Добавлен: 5 лет 2 мес. назад | Торрент скачан:35 раз
Скачать  

05-05-2015 16:17 Красная тропа 90 Скачать торрент  

Красная тропа 90 / Red Trail 90
Год выпуска: 2014
Страна: Канада
Жанр: триллер
Продолжительность: 01:06:06
Перевод: Любительский двухголосый [2D]

Режиссер: Глен Шульц

В ролях: Дэвид Фиш, Робер Ларсон, Дженнифер Лич, Скотт Лукас, Глен Шульцы, Мэйси Шульц, Дэбби Симинитон

Описание: Пока еще заботливый и любящий семьянин отправляется в одиночку в пустынную местность, где терпит аварию. И среди красоты нетронутой природы он будет вынужден бороться за свою жизнь, противостоя таинственному убийце.

Качество: WEB-DLRip 720p
Формат: MKV
Видео кодек: AVC
Аудио кодек: AC3
Видео: AVC, 1280x720 (16:9), 23.976 fps, 3 416 Kbps (0.155 bit/pixel)
Аудио#1: AC-3, 48.0 KHz, 2 ch, 192 Kbps, CBR





Общее
Уникальный идентификатор : 230975566889939772486875873878323394344 (0xADC446AC7DE332C7986A42E8AEDA7728)
Полное имя : D:\Торенты\Red.Trail.90.WEB-DL720.mkv
Формат : Matroska
Версия формата : Version 4 / Version 2
Размер файла : 1,70 Гбайт
Продолжительность : 1 ч. 6 м.
Общий поток : 3681 Кбит/сек
Дата кодирования : UTC 2015-05-03 04:23:18
Программа кодирования : mkvmerge v7.2.0 ('On Every Street') 64bit built on Sep 13 2014 15:52:10
Библиотека кодирования : libebml v1.3.0 + libmatroska v1.4.1

Видео
Идентификатор : 1
Формат : AVC
Формат/Информация : Advanced Video Codec
Профиль формата : Baseline@L3.1
Параметр CABAC формата : Нет
Параметр ReFrames формата : 4 кадра
Идентификатор кодека : V_MPEG4/ISO/AVC
Продолжительность : 1 ч. 6 м.
Битрейт : 3416 Кбит/сек
Ширина : 1280 пикселей
Высота : 720 пикселей
Соотношение сторон : 16:9
Режим частоты кадров : Постоянный
Частота кадров : 23,976 кадра/сек
Цветовое пространство : YUV
Субдискретизация насыщенности : 4:2:0
Битовая глубина : 8 бит
Тип развёртки : Прогрессивная
Бит/(Пиксели*Кадры) : 0.155
Размер потока : 1,58 Гбайт (93%)
Библиотека кодирования : Zencoder Video Encoding System
Default : Да
Forced : Нет
Основные цвета : BT.709
Характеристики трансфера : BT.709
Коэффициенты матрицы : BT.709
colour_range : Limited

Аудио
Идентификатор : 2
Формат : AC-3
Формат/Информация : Audio Coding 3
Расширение режима : CM (complete main)
Параметр Endianness формата : Big
Идентификатор кодека : A_AC3
Продолжительность : 1 ч. 6 м.
Вид битрейта : Постоянный
Битрейт : 192 Кбит/сек
Каналы : 2 канала
Расположение каналов : Front: L R
Частота : 48,0 КГц
Битовая глубина : 16 бит
Метод сжатия : С потерями
Размер потока : 90,8 Мбайт (5%)
Default : Да
Forced : Нет

pb.wtf



Скачать Красная тропа 90 через торрент http://img.freerutor.com/img/2015-05/05/8opi8te0fl2xz14zkxv5gxy4d.jpg Скачать фильм Красная тропа 90 через торрент бесплантно в хорошем качестве Описание: Пока еще заботливый и любящий семьянин отправляется в одиночку в пустынную местность, где терпит аварию. И среди красоты ... 9.7 10 6
Торрент: Зарегистрирован [2015-05-05 16:17] · скачан: 35 раз
Статус: T временная
Размер: 1.7 GB
Как cкачать? Как скачать Красная тропа 90 через торрент | qTorrent

28-11-2019 20:33  

Отключить всю рекламу на сайте

    Дорогой пользователь! Огромная просьба, поблагодарите релизера, оцените раздачу и оставьте свои комментарий, если Вы скачали Красная тропа 90 через торрент бесплатно! Внесите свою лепту в развитие PiratBit!
    Комментировать посты могут только пользователи прошедшие не сложную регистрацию
    Показать сообщения:    

    Красная тропа 90 через торрент
    Скачать бесплатно Красная тропа 90
    Красная тропа 90 скачать торрент
    Красная тропа 90 смотреть онлайн
    Cкачать фильм Красная тропа 90 бесплатно
    Красная тропа 90 скачать торрент в хорошем качестве
    Красная тропа 90 смотреть онлайн бесплатно в хорошем качестве


    Вы не можете начинать темы
    Вы не можете отвечать на сообщения
    Вы не можете редактировать свои сообщения
    Вы не можете удалять свои сообщения
    Вы не можете голосовать в опросах
    Вы не можете прикреплять файлы к сообщениям
    Вы можете скачивать файлы