2 сезон

iTunes

1 сезон

1

iTunes

iTunes

iTunes

1 сезон

RePack

30

ИГРА 18+

pack

ВАЖНО

!!Акция!!

Alien_RageХит недели

RePack

MK11
pack

Забери бонус

RePack

jed

!!Акция!!

Alien_Rage

RePack

fifa19

RePack

Assassins Creed: Odyssey

RePack

NEED FOR SPEED™ PAYBACK

4 сезон

9 сезон

Бесстыжие 9 сезон

Все сериалы

все сериалы на PB.wtf

RePack

FAR CRY 5
  

Мюнхен / Munich (Стивен Спилберг / Steven Spielberg) [2005, триллер, драма, история, BDRip 1080p, Дублированный - Лицензия] pb.wtf

Мюнхен через торрент pb.wtf

Размер: 11.54 GB | Добавлен: 5 лет 5 мес. назад | Торрент скачан:167 раз
Скачать  

05-05-2015 18:57 Мюнхен Скачать торрент  

Мюнхен / Munich
«В 1972 году весь мир наблюдал, как 11 израильских атлетов были убиты во время Олимпийских Игр в Мюнхене. Это история о том, что случилось потом...»


Год выпуска: 2005
Страна: США, Канада, Франция
Жанр: триллер, драма, история
Продолжительность: 02:43:49
Перевод: Дублированный - [Лицензия]
Субтитры: русские (Forced), русские (Full), английские (Full), английские (SDH)
Режиссер: Стивен Спилберг
В ролях: Эрик Бана , Дэниэл Крэйг , Киран Хайндс , Матьё Кассовиц , Ханнс Цишлер , Айелет Зурер , Джеффри Раш , Гила Альмагор , Микаэль Лонсдаль , Матьё Амальрик , Мориц Бляйбтрой , Валерия Бруни-Тедески
Описание:
Агент МОССАД и его группа выслеживает и методично уничтожает палестинских террористов, повинных в смерти израильских спортсменов в аэропорту Мюнхена после Олимпиады 1972 года...

R - Лицам до 17 лет обязательно присутствие взрослого
Качество: BDRip 1080p (исходник Blu-ray)
Контейнер (Расширение): MKV
Видео кодек: AVC
Аудио кодек: AC3
Видео: 1920x812 (2.35:1), 9000 Кбит/сек, 23,976 кадр/сек, 0,241 Бит/[Пиксели*Кадры]
Аудио №1: русский / AC3 / 5.1 / 48 kHz / 448 kbps / 16 bit |Дублированный|
Аудио №2: английский / AC3 / 5.1 / 48 kHz / 640 kbps / 16 bit
Навигация по главам(Чаптеры): естьАвтор рипа: Сообщество:
  • Дочь Стивена Спилберга Саша Спилберг снялась в роли израильской девушки, смотрящей телевизор.
  • Фильм поставлен по книге Джорджа Джонаса «Vengeance: The True Story of an Israeli Counter-Terrorist Team». По этой же книге в 1986 году был снят телевизионный фильм «Меч Гедеона».
  • Гури Вайнберг играет собственного отца, спортсмена, убитого, когда Гури был еще малышом.
  • Код:

    Format                                   : Matroska
    Format version                           : Version 2
    File size                                : 11.5 GiB
    Duration                                 : 2h 43mn
    Overall bit rate                         : 10.1 Mbps
    Movie name                               : Mjunhen.(2005).BDRip.1080p.[denis100]
    Encoded date                             : UTC 2015-05-05 18:33:26
    Writing application                      : mkvmerge v5.8.0 ('No Sleep / Pillow') built on Sep  2 2012 15:37:04
    Writing library                          : libebml v1.2.3 + libmatroska v1.3.0

    Video
    ID                                       : 1
    Format                                   : AVC
    Format/Info                              : Advanced Video Codec
    Format profile                           : High@L4.1
    Format settings, CABAC                   : Yes
    Format settings, ReFrames                : 5 frames
    Codec ID                                 : V_MPEG4/ISO/AVC
    Duration                                 : 2h 43mn
    Bit rate                                 : 9 000 Kbps
    Width                                    : 1 920 pixels
    Height                                   : 812 pixels
    Display aspect ratio                     : 2.35:1
    Frame rate                               : 23.976 fps
    Color space                              : YUV
    Chroma subsampling                       : 4:2:0
    Bit depth                                : 8 bits
    Scan type                                : Progressive
    Bits/(Pixel*Frame)                       : 0.241
    Stream size                              : 10.1 GiB (87%)
    Title                                    : Mjunhen.(2005).BDRip.1080p.[denis100]
    Writing library                          : x264 core 146 r2538 121396c
    Encoding settings                        : cabac=1 / ref=5 / deblock=1:-3:-3 / analyse=0x3:0x133 / me=umh / subme=11 / psy=1 / psy_rd=1.00:0.00 / mixed_ref=1 / me_range=48 / chroma_me=1 / trellis=2 / 8x8dct=1 / cqm=0 / deadzone=21,11 / fast_pskip=0 / chroma_qp_offset=-2 / threads=6 / lookahead_threads=1 / sliced_threads=0 / nr=0 / decimate=1 / interlaced=0 / bluray_compat=0 / constrained_intra=0 / bframes=8 / b_pyramid=2 / b_adapt=2 / b_bias=0 / direct=3 / weightb=1 / open_gop=0 / weightp=2 / keyint=240 / keyint_min=23 / scenecut=40 / intra_refresh=0 / rc=2pass / mbtree=0 / bitrate=9000 / ratetol=1.0 / qcomp=0.60 / qpmin=0 / qpmax=69 / qpstep=4 / cplxblur=20.0 / qblur=0.5 / ip_ratio=1.40 / pb_ratio=1.30 / aq=1:1.00
    Language                                 : English
    Default                                  : Yes
    Forced                                   : No

    Audio #1
    ID                                       : 2
    Format                                   : AC-3
    Format/Info                              : Audio Coding 3
    Mode extension                           : CM (complete main)
    Codec ID                                 : A_AC3
    Duration                                 : 2h 43mn
    Bit rate mode                            : Constant
    Bit rate                                 : 448 Kbps
    Channel(s)                               : 6 channels
    Channel positions                        : Front: L C R, Side: L R, LFE
    Sampling rate                            : 48.0 KHz
    Bit depth                                : 16 bits
    Compression mode                         : Lossy
    Stream size                              : 525 MiB (4%)
    Title                                    : Дублированный
    Language                                 : Russian
    Default                                  : Yes
    Forced                                   : No

    Audio #2
    ID                                       : 3
    Format                                   : AC-3
    Format/Info                              : Audio Coding 3
    Mode extension                           : CM (complete main)
    Codec ID                                 : A_AC3
    Duration                                 : 2h 43mn
    Bit rate mode                            : Constant
    Bit rate                                 : 640 Kbps
    Channel(s)                               : 6 channels
    Channel positions                        : Front: L C R, Side: L R, LFE
    Sampling rate                            : 48.0 KHz
    Bit depth                                : 16 bits
    Compression mode                         : Lossy
    Stream size                              : 750 MiB (6%)
    Language                                 : English
    Default                                  : No
    Forced                                   : No

    Text #1
    ID                                       : 4
    Format                                   : UTF-8
    Codec ID                                 : S_TEXT/UTF8
    Codec ID/Info                            : UTF-8 Plain Text
    Title                                    : Forced
    Language                                 : Russian
    Default                                  : Yes
    Forced                                   : No

    Text #2
    ID                                       : 5
    Format                                   : UTF-8
    Codec ID                                 : S_TEXT/UTF8
    Codec ID/Info                            : UTF-8 Plain Text
    Title                                    : Full
    Language                                 : Russian
    Default                                  : No
    Forced                                   : No

    Text #3
    ID                                       : 6
    Format                                   : UTF-8
    Codec ID                                 : S_TEXT/UTF8
    Codec ID/Info                            : UTF-8 Plain Text
    Title                                    : Full
    Language                                 : English
    Default                                  : No
    Forced                                   : No

    Text #4
    ID                                       : 7
    Format                                   : UTF-8
    Codec ID                                 : S_TEXT/UTF8
    Codec ID/Info                            : UTF-8 Plain Text
    Title                                    : SDH
    Language                                 : English
    Default                                  : No
    Forced                                   : No

    Menu
    00:00:00.000                             : en:00:00:00.000
    00:09:27.484                             : en:00:09:27.484
    00:22:58.085                             : en:00:22:58.085
    00:33:29.841                             : en:00:33:29.841
    00:41:27.485                             : en:00:41:27.485
    00:47:25.676                             : en:00:47:25.676
    00:58:30.382                             : en:00:58:30.382
    01:07:28.336                             : en:01:07:28.336
    01:16:26.207                             : en:01:16:26.207
    01:25:08.186                             : en:01:25:08.186
    01:34:04.138                             : en:01:34:04.138
    01:44:59.502                             : en:01:44:59.502
    01:54:21.897                             : en:01:54:21.897
    01:59:06.056                             : en:01:59:06.056
    02:06:47.934                             : en:02:06:47.934
    02:12:18.681                             : en:02:12:18.681
    02:19:40.622                             : en:02:19:40.622
    02:27:38.516                             : en:02:27:38.516
    02:32:27.138                             : en:02:32:27.138
    02:36:27.336                             : en:02:36:27.336

    pb.wtf



    Скачать Мюнхен через торрент http://i47.fastpic.ru/big/2015/0505/dc/cd4de8caca997e53ea0e52ab478b7cdc.png Скачать фильм Мюнхен через торрент бесплантно в хорошем качестве Описание:Агент МОССАД и его группа выслеживает и методично уничтожает палестинских террористов, повинных в смерти израильских спортсменов в ... 10 10 5
    Info! Золотая раздача, скачанное не засчитывается.
    Торрент: Зарегистрирован [2015-05-05 18:57] · скачан: 167 раз
    Статус: √ проверено
    Размер: 11.54 GB
    Как cкачать? Как скачать Мюнхен через торрент | qTorrent

    % Раздел Тема Автор DL S | L
    Фильмы [HD 720p, 1080p] (Хороший звук DUB, MVO) [ 14.16 GB ] 21 час в Мюнхене / 21 Hours at Munich [1976 история BDRip 1080p by msltel] DVO AVO msltel Скачать
    1 | 0
    Фильмы [HD 720p, 1080p] (Хороший звук DUB, MVO) [ 5.41 GB ] 21 час в Мюнхене / 21 Hours at Munich [1976 история BDRip 720p by msltel] DVO AVO msltel Скачать
    1 | 0
    Фильмы 2001-2005 [ 6.63 GB ] Мюнхен / Munich [2005 исторический HDTVRip-AVC Dub 2 x DVO AVO] от ExKinoRay morfyi Скачать
    1 | 0
    Фильмы [HD 720p, 1080p] (Хороший звук DUB, MVO) [ 5.75 GB ] Мюнхен / Munich [2005 история BDRip 720p - ] _denis_100 Скачать
    1 | 0
    Фильмы 2001-2005 [ 2.18 GB ] Мюнхен: Возмездие / Munich [2005 история трагедия HDTVRip Dub] Assasinca Скачать
    1 | 0
    Фильмы 2001-2005 [ 1.46 GB ] Мюнхен / Munich [2005 история HDTVRip] Franz Скачать
    1 | 0
    Discovery [ 570 MB ] Discovery. Мюнхен. Охота на убийц / Discovery. Munich. The Real Assassins [2006 документальный история SATRip DUB лицензия] lexxus350 Скачать
    1 | 0

    28-11-2019 20:33  

    Отключить всю рекламу на сайте

      Дорогой пользователь! Огромная просьба, поблагодарите релизера, оцените раздачу и оставьте свои комментарий, если Вы скачали Мюнхен через торрент бесплатно! Внесите свою лепту в развитие PiratBit!
      Комментировать посты могут только пользователи прошедшие не сложную регистрацию
      Показать сообщения:    

      Мюнхен через торрент
      Скачать бесплатно Мюнхен
      Мюнхен скачать торрент
      Мюнхен смотреть онлайн
      Cкачать фильм Мюнхен бесплатно
      Мюнхен скачать торрент в хорошем качестве
      Мюнхен смотреть онлайн бесплатно в хорошем качестве


      Вы не можете начинать темы
      Вы не можете отвечать на сообщения
      Вы не можете редактировать свои сообщения
      Вы не можете удалять свои сообщения
      Вы не можете голосовать в опросах
      Вы не можете прикреплять файлы к сообщениям
      Вы можете скачивать файлы