Ссылка на приватное зеркало всего за 1$. Внимание количество ограничено!!!

OK

1+1

iTunes

мы

OK

1

WEB-DLRip

Джокер

Пифагор

Ведьмак / The Witcher сериал

Лицензия

ПШазам

ОК

Оно 2

iTunes

30
pack

Вам бонус

ВАЖНО

!!Акция!!

Alien_RageХит недели

RePack

Resident Evil 21

ИГРА 18+

pack

RePack

jed

!!Акция!!

Alien_Rage

RePack

fifa19

RePack

Assassins Creed: Odyssey

RePack

NEED FOR SPEED™ PAYBACK

4 сезон

9 сезон

Бесстыжие 9 сезон

Все сериалы

все сериалы на PB.wtf

RePack

FAR CRY 5
  

Велкам хом (Ангелина Никонова) [2013 г., драма, комедия, WEB-DLRip, Профессиональный многоголосый закадровый " iTunes"] pb.wtf

Велкам хом через торрент pb.wtf

Размер: 2.18 GB | Добавлен: 4 года 8 мес. назад | Торрент скачан:188 раз
Скачать  

06-05-2015 17:13 Велкам хом Скачать торрент  

Велкам хом
Год выпуска: 2013
Страна: Россия / Baraban Films
Жанр: драма, комедия
Продолжительность: 01:55:36
Перевод: Профессиональный многоголосый закадровый (iTunes)

Режиссер: Ангелина Никонова



В ролях: Карен Карагулян, Ольга Дыховичная, Остин Кеннеди, Ара Воланд, Кори Бордман, Гвен Косак, Эдвард Бейкер-Дьюли

Описание: Это история о людях, потерявших чувство принадлежности к определённой географической точке, к тому месту, которое мы называем домом. Всех их объединяет жажда иллюзорного успеха, в гонке за которым многие проводят годы и десятилетия, жертвуя своими первоначальными ценностями. Герои фильма — не самые несчастные люди на свете, но у всех них непростая жизнь, которую каждый избрал добровольно, надеясь реализовать свои представления о благополучии. Нью-Йорк для них — поле боя, где они ежедневно борются за свою мечту.

Качество: WEB-DLRip
Формат: AVI
Видео кодек: XviD
Видео: 720x384 (1.88:1), 24.000 fps, XviD build 50 ~2304 kbps avg, 0.35 bit/pixel
Аудио: 48 kHz, AC3 Dolby Digital, 3/2 (L,C,R,l,r) + LFE ch, ~384 kbps
скриншот   скриншот   скриншот   скриншот   скриншот   скриншот  

Общее
Полное имя : F:\кино\Велкам хом.2013.WEB-DLRip.avi
Формат : AVI
Формат/Информация : Audio Video Interleave
Профиль формата : OpenDML
Размер файла : 2,18 Гбайт
Продолжительность : 1 ч. 55 м.
Общий поток : 2695 Кбит/сек
Программа кодирования : VirtualDubMod 1.5.10.3 | (build 2550/release)
Библиотека кодирования : VirtualDubMod build 2550/release

Видео
Идентификатор : 0
Формат : MPEG-4 Visual
Профиль формата : Advanced Simple@L5
Параметр BVOP формата : 2
Параметр QPel формата : Нет
Параметр GMC формата : Без точки перехода
Параметр матрицы формата : Default (H.263)
Идентификатор кодека : XVID
Идентификатор кодека/Подсказка : XviD
Продолжительность : 1 ч. 55 м.
Битрейт : 2299 Кбит/сек
Ширина : 720 пикселей
Высота : 384 пикселя
Соотношение сторон : 1,85:1
Частота кадров : 24,000 кадра/сек
Цветовое пространство : YUV
Субдискретизация насыщенности : 4:2:0
Битовая глубина : 8 бит
Тип развёртки : Прогрессивная
Метод сжатия : С потерями
Бит/(Пиксели*Кадры) : 0.347
Размер потока : 1,86 Гбайт (85%)
Библиотека кодирования : XviD 1.2.1 (UTC 2008-12-04)

Аудио
Идентификатор : 1
Формат : AC-3
Формат/Информация : Audio Coding 3
Расширение режима : CM (complete main)
Параметр Endianness формата : Big
Идентификатор кодека : 2000
Продолжительность : 1 ч. 55 м.
Вид битрейта : Постоянный
Битрейт : 384 Кбит/сек
Каналы : 6 каналов
Расположение каналов : Front: L C R, Side: L R, LFE
Частота : 48,0 КГц
Битовая глубина : 16 бит
Метод сжатия : С потерями
Размер потока : 318 Мбайт (14%)
Выравнивание : Разделение по промежуткам
Продолжительность промежутка : 42 мс. (1,00 видеокадр)
Время предзагрузки промежутка : 500 мс.

pb.wtf



Скачать Велкам хом через торрент http://pic1.kartinco.top/images/10/mh4km.jpg Скачать фильм Велкам хом через торрент бесплантно в хорошем качестве Описание: Это история о людях, потерявших чувство принадлежности к определённой географической точке, к тому месту, которое мы называем ... 6.7 10 9
Торрент: Зарегистрирован [2015-05-06 17:13] · скачан: 188 раз
Статус: √ проверено
Размер: 2.18 GB
Как cкачать? Как скачать Велкам хом через торрент | qTorrent

% Раздел Тема Автор DL S | L
Наши фильмы (HD, WEB-DL 720p, 1080p) [ 4.86 GB ] Велкам хом [2013 HDTV 1080i ] Ворон Скачать
1 | 0
Наши новые фильмы 2013 [ 1.46 GB ] Велкам хом [2013 WEB-DLRip Профессиональное Ворон Скачать
1 | 0
Наши фильмы (HD, WEB-DL 720p, 1080p) [ 3.56 GB ] Велкам хом [2013 WEB-DL 720p Ворон Скачать
1 | 0

28-11-2019 20:33  

Отключить всю рекламу на сайте

    Дорогой пользователь! Огромная просьба, поблагодарите релизера, оцените раздачу и оставьте свои комментарий, если Вы скачали Велкам хом через торрент бесплатно! Внесите свою лепту в развитие PiratBit!
    Комментировать посты могут только пользователи прошедшие не сложную регистрацию
    Показать сообщения:    

    Велкам хом через торрент
    Скачать бесплатно Велкам хом
    Велкам хом скачать торрент
    Велкам хом смотреть онлайн
    Cкачать фильм Велкам хом бесплатно
    Велкам хом скачать торрент в хорошем качестве
    Велкам хом смотреть онлайн бесплатно в хорошем качестве


    Вы не можете начинать темы
    Вы не можете отвечать на сообщения
    Вы не можете редактировать свои сообщения
    Вы не можете удалять свои сообщения
    Вы не можете голосовать в опросах
    Вы не можете прикреплять файлы к сообщениям
    Вы можете скачивать файлы