Ссылка на приватное зеркало нашего сайта всего за 1$. Внимание количество ограничено!!!

2 сезон

iTunes

1 сезон

1

2 сезон

2 сезон

iTunes

1 сезон

RePack

30

Ultimate

ВАЖНО

ИГРА 18+

pack

RePack

MK11
pack

Забери бонус

RePack

jed

!!Акция!!

Alien_Rage

RePack

fifa19

RePack

Assassins Creed: Odyssey

RePack

NEED FOR SPEED™ PAYBACK

4 сезон

9 сезон

Бесстыжие 9 сезон

Все сериалы

все сериалы на PB.wtf

RePack

FAR CRY 5
  

Сверхспособности / Powers / Сезон: 1 / Серий 10 (Дэвид Петрарка / David Petrarca, Микаэл Саломон / Mikael Salomon, Билл Иглз / Bill Eagles) [2015, США, фантастика, драма, криминал, WEBRip 1080р] [Jaskier] pb.wtf

Скачать  

07-05-2015 03:57 Сверхспособности Скачать торрент  

Сверхспособности / Powers«Real power lies within»

Год выпуска: 2015
Страна: США
Жанр: фантастика, драма, криминал
Перевод: Профессиональный (многоголосый закадровый) [Jaskier]

Режиссер: Билл Иглз, Дэвид Петрарка, Микаэл Саломон, ...
Сценарий: Брайан Бендис, Чарли Хьюстон, Майк Эйвон Оеминг
Продюсер: Фрэнк Фраттароли, Реми Обушон, Чарли Хьюстон
Оператор: Жан Рихтер-Фриис, Джон Линч
Композитор: Джеф Рона
Художник: Пол Питерс, Патти Подеста, Eric R. Johnson
Монтаж: Найвен Хоуи, Стивен Невиус, Тоби Йэтс

В ролях: Шарлто Копли / Sharlto Copley (Christian Walker), Адам Годли / Adam Godley (Captain Cross), Эдди Иззард / Eddie Izzard («Big Bad» Wolfe), Сьюзэн Хэйард / Susan Heyward (Deena Pilgrim), Ноа Тейлор / Noah Taylor (Johnny Royalle), Мишель Форбс / Michelle Forbes (Retro Girl), Логан Браунинг / Logan Browning (Zora), Джастис Лик / Justice Leak (Kutter)


Описание: Сюжет сериала разворачивается в мире, где супергерои живут среди обычных людей. Сотрудники убойного отдела Кристиан Уокер и Дина Пилгрим занимаются защитой простых людей от преступников со сверхспособностями и расследуют дела, в которых замешаны эти супергерои.
Премьера (мир): 10 марта 2015
Рейтинг



Качество: WEBRip1080р
Формат: MKV
Видео кодек: AVC
Аудио кодеk: AC3
Видео: 1920x1080 (16:9), 23.976 fps, AVC, 6 511 Kbps
Аудио #1: Russian AC3, 384 Kbps, 48.0 KHz, 6 ch
Аудио #2: English AC3, 640 Kbps, 48.0 KHz, 6 ch
Релиз от Rexar .

Код:

Общее
Уникальный идентификатор                 : 231261058199298891981459059302023832616 (0xADFB427B6A5D70D4A01551C94F0C2428)
Полное имя                               : E:\video\Powers.2015.S01E01.1080p.WEBRip.Rus.Eng.Jaskier.mkv
Формат                                   : Matroska
Версия формата                           : Version 4 / Version 2
Размер файла                             : 2,63 Гбайт
Продолжительность                             : 50 м.
Общий поток                              : 7414 Кбит/сек
Дата кодирования                         : UTC 2015-03-17 15:51:56
Программа кодирования                    : mkvmerge v7.7.0 ('Six Voices') 64bit built on Feb 28 2015 23:39:33
Библиотека кодирования                   : libebml v1.3.1 + libmatroska v1.4.2
DURATION                             : 00:50:48.800000000
NUMBER_OF_FRAMES                         : 95275
NUMBER_OF_BYTES                          : 146342400
_STATISTICS_WRITING_APP                  : mkvmerge v7.7.0 ('Six Voices') 64bit built on Feb 28 2015 23:39:33
_STATISTICS_WRITING_DATE_UTC             : 2015-03-17 15:51:56
_STATISTICS_TAGS                         : BPS DURATION NUMBER_OF_FRAMES NUMBER_OF_BYTES

Видео
Идентификатор                            : 1
Формат                                   : AVC
Формат/Информация                        : Advanced Video Codec
Профиль формата                          : High@L4.1
Параметр CABAC формата                   : Да
Параметр ReFrames формата                : 4 кадра
Идентификатор кодека                     : V_MPEG4/ISO/AVC
Продолжительность                             : 50 м.
Битрейт                                  : 6243 Кбит/сек
Ширина                                   : 1920 пикселей
Высота                                   : 1080 пикселей
Соотношение сторон                       : 16:9
Режим частоты кадров                     : Постоянный
Частота кадров                           : 23,976 кадра/сек
Цветовое пространство                    : YUV
Субдискретизация насыщенности            : 4:2:0
Битовая глубина                          : 8 бит
Тип развёртки                            : Прогрессивная
Бит/(Пиксели*Кадры)                      : 0.126
Размер потока                            : 2,22 Гбайт (84%)
Заголовок                                : Powers 2015 Season 01 Episode 01 "Pilot"
Библиотека кодирования                   : x264 core 144 r2525 40bb568
Язык                                     : English
Default                                  : Да
Forced                                   : Нет
DURATION                                  : 00:50:48.838000000
NUMBER_OF_FRAMES                         : 73099
NUMBER_OF_BYTES                          : 2434594102
_STATISTICS_WRITING_APP                  : mkvmerge v7.7.0 ('Six Voices') 64bit built on Feb 28 2015 23:39:33
_STATISTICS_WRITING_DATE_UTC             : 2015-03-17 15:51:56
_STATISTICS_TAGS                         : BPS DURATION NUMBER_OF_FRAMES NUMBER_OF_BYTES

Аудио #1
Идентификатор                            : 2
Формат                                   : AC-3
Формат/Информация                        : Audio Coding 3
Расширение режима                        : CM (complete main)
Параметр Endianness формата              : Big
Идентификатор кодека                     : A_AC3
Продолжительность                             : 50 м.
Вид битрейта                             : Постоянный
Битрейт                                  : 384 Кбит/сек
Каналы                                   : 6 каналов
Расположение каналов                     : Front: L C R, Side: L R, LFE
Частота                                  : 48,0 КГц
Битовая глубина                          : 16 бит
Метод сжатия                             : С потерями
Размер потока                            : 140 Мбайт (5%)
Заголовок                                : AC3 5.1 @ 384 kbps - Jaskier
Язык                                     : Russian
Default                                  : Да
Forced                                   : Нет

Аудио #2
Идентификатор                            : 3
Формат                                   : AC-3
Формат/Информация                        : Audio Coding 3
Расширение режима                        : CM (complete main)
Параметр Endianness формата              : Big
Идентификатор кодека                     : A_AC3
Продолжительность                             : 50 м.
Вид битрейта                             : Постоянный
Битрейт                                  : 640 Кбит/сек
Каналы                                   : 6 каналов
Расположение каналов                     : Front: L C R, Side: L R, LFE
Частота                                  : 48,0 КГц
Битовая глубина                          : 16 бит
Метод сжатия                             : С потерями
Размер потока                            : 233 Мбайт (9%)
Заголовок                                : AC3 5.1 @ 640 kbps
Язык                                     : English
Default                                  : Нет
Forced                                   : Нет

Сезон 1 Серий 1-10 Финал сезона
1.01 Пилот (10.03.2015)
1.02 Like a Power (10.03.2015)
1.03 Mickey Rooney Cries No More (10.03.2015)
1.04 Devil in a Garbage Bag (17.03.2015)
1.05 Paint It Black (24.03.2015)
1.06 The Raconteur of the Funeral Circuit (31.03.2015)
1.07 You Are Not It (07.04.2015)
1.08 Aha Shake Heartbreak (14.04.2015)
1.09 Level 13 (21.04.2015)
1.10 F@#K the Big Chiller (28.04.2015)
скриншот  скриншот  скриншот  скриншот  скриншот   Кто скачал просьба не уходить с раздачи. pb.wtf





Последний раз редактировалось: nosok (2017-09-29 09:49), всего редактировалось 11 раз(а)

28-11-2019 20:33  

Отключить всю рекламу на сайте

07-05-2015 08:20 Сверхспособности Скачать торрент  

задумка хорошая, сериал понравился, спецэффекты уровня 80ых правда))pb.wtf



24-06-2015 12:05 Сверхспособности Скачать торрент  

не качает чётpb.wtf



    Дорогой пользователь! Огромная просьба, поблагодарите релизера, оцените раздачу и оставьте свои комментарий, если Вы скачали Сверхспособности через торрент бесплатно! Внесите свою лепту в развитие PiratBit!
    Комментировать посты могут только пользователи прошедшие не сложную регистрацию
    Показать сообщения:    

    Сверхспособности через торрент
    Скачать бесплатно Сверхспособности
    Сверхспособности скачать торрент
    Сверхспособности смотреть онлайн
    Cкачать фильм Сверхспособности бесплатно
    Сверхспособности скачать торрент в хорошем качестве
    Сверхспособности смотреть онлайн бесплатно в хорошем качестве


    Вы не можете начинать темы
    Вы не можете отвечать на сообщения
    Вы не можете редактировать свои сообщения
    Вы не можете удалять свои сообщения
    Вы не можете голосовать в опросах
    Вы не можете прикреплять файлы к сообщениям
    Вы можете скачивать файлы