Ссылка на приватное зеркало всего за 1$. Внимание количество ограничено!!!

iTunes

iTunes

iTunes

1

iTunes

iTunes

iTunes

iTunes

iTunes

30
pack

$ от Little Big

ВАЖНО

!!Акция!!

Alien_RageХит недели

RePack

Resident Evil 21

ИГРА 18+

pack

RePack

jed

!!Акция!!

Alien_Rage

RePack

fifa19

RePack

Assassins Creed: Odyssey

RePack

NEED FOR SPEED™ PAYBACK

4 сезон

9 сезон

Бесстыжие 9 сезон

Все сериалы

все сериалы на PB.wtf

RePack

FAR CRY 5
  

Сумасшедшие сук.и / Crazy Bitches (Джейн Кларк ) [2014, ужасы, комедия, WEB-DL 720p, Любительский (двухголосый) [den904, DeadSno] pb.wtf

Сумасшедшие сук.и через торрент pb.wtf

Размер: 3.4 GB | Добавлен: 5 лет 2 мес. назад | Торрент скачан:154 раза
Скачать  

07-05-2015 13:18 Сумасшедшие сук.и Скачать торрент  


Сумасшедшие сук.и / Crazy Bitches


ИНФОРМАЦИЯ:
Год выпуска:2014
Страна: США
Жанр: ужасы, комедия
Продолжительность: 01:40:30
Перевод: Любительский (двухголосый) [den904, DeadSno]
Субтитры: английские,
Режиссер: Джейн Кларк

В Ролях:


Саманта Колберн (Taylor), Кэти ДеБуоно (Cassie), Энди Гала (Bj), Лиз МакГивер (Minnie), Виктория Профета (Alice), Гвиневер Тёрнер (Belinda), Найо Уоллес (Dorri), Мэри Уэллс (Princess), Блейк Беррис (Gareth), Кэндис Кейн (Vivianna), Дэвид Фумеро (Eddie), Джон В. МакЛафлин (Gardner)

Описание:
Группа подружек вместе отправляются на ранчо, дабы провести веселые деньки в сельском антураже. Однако беспечные девицы не знают-не ведают, что, согласно местным байкам, десять лет назад, на этом ранчо, жестокий маниак зверски расправился с 7мью девушками и скрылся в лесной глуши. И их веселые деньки исчезают, как утренний туман с восходом солнца, когда одна за одной, подружки начинают куда-то пропадать...Теперь на повестке дня стоят вопросы: что выпить и с кем заняться любовью, а кто их таинственный преследователь и правда ли то, что болтают деревенские жители?

  • Мировая премьера:26 июня 2014

    ТЕХ.ДАННЫЕ:
    Качество: WEB-DL 720p
    Формат: MKV
    Видео кодек: AVC
    Аудио кодек: AC3
    Видео: AVC, 1280x678 (1.888), 4172 kbps, 24 fps, 0,200 bpp
    Аудио №1: русский / AC3 / 2.0 / 48 kHz / 192 kbps / 16 bit ||
    Аудио №2: английский / AC3 / 5.1 / 48 kHz / 384 kbps / 16 bit
    Навигация по главам: есть
    Сэмпл: http://www12.zippyshare.com/v/Fhd0Uf7Y/file.html


    Код:

    General
    Unique ID                                : 208873744809518461413331215708326704134 (0x9D239EB6847644098F4970466F4BB406)
    Complete name                            : D:\Торенты\Crazy.Bitches.2014.L2.WEB-DL.720p.mkv
    Format                                   : Matroska
    Format version                           : Version 4 / Version 2
    File size                                : 3.40 GiB
    Duration                                 : 1h 40mn
    Overall bit rate                         : 4 845 Kbps
    Encoded date                             : UTC 2015-05-07 12:49:10
    Writing application                      : mkvmerge v6.1.0 ('Old Devil') built on Mar  4 2013 09:10:42
    Writing library                          : libebml v1.3.0 + libmatroska v1.4.0

    Video
    ID                                       : 1
    Format                                   : AVC
    Format/Info                              : Advanced Video Codec
    Format profile                           : High@L3.1
    Format settings, CABAC                   : No
    Format settings, ReFrames                : 2 frames
    Codec ID                                 : V_MPEG4/ISO/AVC
    Duration                                 : 1h 40mn
    Bit rate                                 : 4 172 Kbps
    Width                                    : 1 280 pixels
    Height                                   : 678 pixels
    Display aspect ratio                     : 1.888
    Frame rate                               : 24.000 fps
    Color space                              : YUV
    Chroma subsampling                       : 4:2:0
    Bit depth                                : 8 bits
    Scan type                                : Progressive
    Bits/(Pixel*Frame)                       : 0.200
    Stream size                              : 2.93 GiB (86%)
    Language                                 : English
    Default                                  : Yes
    Forced                                   : No
    Color primaries                          : BT.709-5, BT.1361, IEC 61966-2-4, SMPTE RP177
    Transfer characteristics                 : BT.709-5, BT.1361
    Matrix coefficients                      : BT.709-5, BT.1361, IEC 61966-2-4 709, SMPTE RP177

    Audio #1
    ID                                       : 2
    Format                                   : AC-3
    Format/Info                              : Audio Coding 3
    Mode extension                           : CM (complete main)
    Codec ID                                 : A_AC3
    Duration                                 : 1h 40mn
    Bit rate mode                            : Constant
    Bit rate                                 : 192 Kbps
    Channel(s)                               : 2 channels
    Channel positions                        : Front: L R
    Sampling rate                            : 48.0 KHz
    Bit depth                                : 16 bits
    Compression mode                         : Lossy
    Stream size                              : 138 MiB (4%)
    Language                                 : Russian
    Default                                  : Yes
    Forced                                   : No

    Audio #2
    ID                                       : 3
    Format                                   : AC-3
    Format/Info                              : Audio Coding 3
    Mode extension                           : CM (complete main)
    Codec ID                                 : A_AC3
    Duration                                 : 1h 40mn
    Bit rate mode                            : Constant
    Bit rate                                 : 384 Kbps
    Channel(s)                               : 6 channels
    Channel positions                        : Front: L C R, Side: L R, LFE
    Sampling rate                            : 48.0 KHz
    Bit depth                                : 16 bits
    Compression mode                         : Lossy
    Stream size                              : 276 MiB (8%)
    Language                                 : English
    Default                                  : No
    Forced                                   : No

    Text
    ID                                       : 4
    Format                                   : UTF-8
    Codec ID                                 : S_TEXT/UTF8
    Codec ID/Info                            : UTF-8 Plain Text
    Language                                 : English
    Default                                  : No
    Forced                                   : No

    Menu
    00:00:00.000                             : en:Chapter 1
    00:10:25.000                             : en:Chapter 2
    00:22:52.000                             : en:Chapter 3
    00:30:43.000                             : en:Chapter 4
    00:38:50.000                             : en:Chapter 5
    00:46:53.000                             : en:Chapter 6
    00:58:34.000                             : en:Chapter 7
    01:10:40.000                             : en:Chapter 8
    01:19:37.000                             : en:Chapter 9
    01:32:40.000                             : en:Chapter 10
    01:36:40.000                             : en:Chapter 11

    Скриншоты:

    © Оформление by Ворон
    pb.wtf



  • Скачать Сумасшедшие сук.и через торрент http://pic.kartinco.top/images/6/ordi9.jpg Скачать фильм Сумасшедшие сук.и через торрент бесплантно в хорошем качестве Описание: Группа подружек вместе отправляются на ранчо, дабы провести веселые деньки в сельском антураже. Однако беспечные девицы не ... 7.8 10 6
    Торрент: Зарегистрирован [2015-05-07 13:18] · скачан: 154 раз
    Статус: √ проверено
    Размер: 3.4 GB
    Как cкачать? Как скачать Сумасшедшие сук.и через торрент | qTorrent



    Последний раз редактировалось: Ворон (2015-05-07 14:01), всего редактировалось 1 раз

    28-11-2019 20:33  

    Отключить всю рекламу на сайте

    07-05-2015 13:47 Сумасшедшие сук.и Скачать торрент  

    2 скрин зачет pb.wtf



    07-05-2015 17:21 Сумасшедшие сук.и Скачать торрент  

    изнАссилум опять?pb.wtf



      Дорогой пользователь! Огромная просьба, поблагодарите релизера, оцените раздачу и оставьте свои комментарий, если Вы скачали Сумасшедшие сук.и через торрент бесплатно! Внесите свою лепту в развитие PiratBit!
      Комментировать посты могут только пользователи прошедшие не сложную регистрацию
      Показать сообщения:    

      Сумасшедшие сук.и через торрент
      Скачать бесплатно Сумасшедшие сук.и
      Сумасшедшие сук.и скачать торрент
      Сумасшедшие сук.и смотреть онлайн
      Cкачать фильм Сумасшедшие сук.и бесплатно
      Сумасшедшие сук.и скачать торрент в хорошем качестве
      Сумасшедшие сук.и смотреть онлайн бесплатно в хорошем качестве


      Вы не можете начинать темы
      Вы не можете отвечать на сообщения
      Вы не можете редактировать свои сообщения
      Вы не можете удалять свои сообщения
      Вы не можете голосовать в опросах
      Вы не можете прикреплять файлы к сообщениям
      Вы можете скачивать файлы