новый адрес
Ссылка на приватное зеркало всего за 1$. Внимание количество ограничено!!!

iTunes

1+1

iTunes

мы

iTunes

1

iTunes

Чернобыль

iTunes

Ральф против интернета

Лицензия

ПШазам

Лицензия

Оно 2

Лицензия

30
pack

Вам бонус

ВАЖНО

!!Акция!!

Alien_RageХит недели

RePack

Resident Evil 21

ИГРА 18+

pack

RePack

jed

!!Акция!!

Alien_Rage

RePack

fifa19

RePack

Assassins Creed: Odyssey

RePack

NEED FOR SPEED™ PAYBACK

3 сезон

9 сезон

Бесстыжие 9 сезон

Все сериалы

все сериалы на PB.wtf

RePack

FAR CRY 5
Ребята, катастрофически не хватает 1900р. для оплаты серверов за Октябрь (всвязи с блокировками трафик упал в 3 раза), 1-2р., выручайте.
  

Пока фронт в обороне (Юлий Файт ) [1964, военный, SATRip] pb.wtf

Пока фронт в обороне через торрент pb.wtf

Размер: 1.45 GB | Добавлен: 3 года 6 мес. назад | Торрент скачан:11 раз
Скачать  

07-05-2015 15:06 Пока фронт в обороне Скачать торрент  


Пока фронт в обороне


ИНФОРМАЦИЯ:
Год выпуска:1964
Страна: СССР
Жанр: военный
Продолжительность: 01:21:27
Перевод: Не требуется
Режиссер: Юлий Файт

В Ролях:


Виктор Авдюшко, Светлана Светличная, Владимир Костин, Григорий Аронов, Виталий Матвеев, Владислав Ковальков, Георгий Кулбуш, Лев Степанов (военный переводчик), Мария Самойлова, Александр Демьяненко (Рунге), Александр Анисимов, Игорь Косухин (Русанов)

Описание:
Волховский фронт 1942 года. Молодой политрук отдела контрпропаганды штаба дивизии Русанов рвется на передовую. Он добирается до передовой и ведет со звукопередвижки передачи, обращенные к немецким солдатам. А в часы затишья проходит по несколько километров ради того, чтобы увидеть Катю, связистку соседнего участка фронта...

  • Мировая премьера:31 мая 1965

    ТЕХ.ДАННЫЕ:
    Качество: SATRip
    Формат: AVI
    Видео кодек: XviD
    Аудио кодек: AC3
    Видео: XviD, 688x288 (2.40:1),2345 kbps, 25 fps, 0,453 bpp
    Аудио: AC3 / 2.0 / 48 kHz / 192 kbps / 16 bit



    Код:

    General
    Complete name                            : D:\Торенты\poka_front_v_oborone_1.46_[torrents.ru]_by_bm11.avi
    Format                                   : AVI
    Format/Info                              : Audio Video Interleave
    File size                                : 1.45 GiB
    Duration                                 : 1h 21mn
    Overall bit rate                         : 2 548 Kbps
    Director                                 : bm11
    Writing application                      : VirtualDubMod 1.5.10.3 | www.virtualdub-fr.org || (build 2550/release)

    Video
    ID                                       : 0
    Format                                   : MPEG-4 Visual
    Format profile                           : Advanced Simple@L5
    Format settings, BVOP                    : 1
    Format settings, QPel                    : No
    Format settings, GMC                     : No warppoints
    Format settings, Matrix                  : Custom
    Codec ID                                 : XVID
    Codec ID/Hint                            : XviD
    Duration                                 : 1h 21mn
    Bit rate                                 : 2345 Kbps
    Width                                    : 688 pixels
    Height                                   : 288 pixels
    Display aspect ratio                     : 2.40:1
    Frame rate                               : 25.000 fps
    Color space                              : YUV
    Chroma subsampling                       : 4:2:0
    Bit depth                                : 8 bits
    Scan type                                : Progressive
    Compression mode                         : Lossy
    Bits/(Pixel*Frame)                       : 0.453
    Stream size                              : 1.28 GiB (88%)
    Writing library                          : XviD 73

    Audio
    ID                                       : 1
    Format                                   : AC-3
    Format/Info                              : Audio Coding 3
    Mode extension                           : CM (complete main)
    Codec ID                                 : 2000
    Duration                                 : 1h 21mn
    Bit rate mode                            : Constant
    Bit rate                                 : 192 Kbps
    Channel(s)                               : 2 channels
    Channel positions                        : Front: L R
    Sampling rate                            : 48.0 KHz
    Bit depth                                : 16 bits
    Compression mode                         : Lossy
    Stream size                              : 112 MiB (8%)
    Alignment                                : Split accross interleaves

    Скриншоты:


    © Оформление by Ворон
    pb.wtf



  • Скачать Пока фронт в обороне через торрент http://s018.radikal.ru/i506/1505/78/584f69e17c84.png Скачать фильм Пока фронт в обороне через торрент бесплантно в хорошем качестве Описание: Волховский фронт 1942 года. Молодой политрук отдела контрпропаганды штаба дивизии Русанов рвется на передовую. Он добирается до ... 10 10 5
    Торрент: Зарегистрирован [2016-05-09 04:37] · скачан: 11 раз
    Статус: √ проверено
    Размер: 1.45 GB
    Как cкачать? Как скачать Пока фронт в обороне через торрент | qTorrent

      Дорогой пользователь! Огромная просьба, поблагодарите релизера, оцените раздачу и оставьте свои комментарий, если Вы скачали Пока фронт в обороне через торрент бесплатно! Внесите свою лепту в развитие PiratBit!
      Комментировать посты могут только пользователи прошедшие не сложную регистрацию
      Показать сообщения:    

      Пока фронт в обороне через торрент
      Скачать бесплатно Пока фронт в обороне
      Пока фронт в обороне скачать торрент
      Пока фронт в обороне смотреть онлайн
      Cкачать фильм Пока фронт в обороне бесплатно
      Пока фронт в обороне скачать торрент в хорошем качестве
      Пока фронт в обороне смотреть онлайн бесплатно в хорошем качестве


      Вы не можете начинать темы
      Вы не можете отвечать на сообщения
      Вы не можете редактировать свои сообщения
      Вы не можете удалять свои сообщения
      Вы не можете голосовать в опросах
      Вы не можете прикреплять файлы к сообщениям
      Вы можете скачивать файлы