новый адрес
Мега распродажа FORZA HORIZON 4 ULTIMATE+ВСЕ DLC+ОНЛАЙН всего за 499р. 349 руб. (супер цена). Внимание количество ограничено!!!

iTunes

1+1

iTunes

мы

iTunes

1

iTunes

Чернобыль

iTunes

Ральф против интернета

Лицензия

ПШазам

Лицензия

Игра престолов

Лицензия

30
pack

ВАЖНО

!!Акция!!

Alien_RageХит недели

RePack

Resident Evil 21

ИГРА 18+

pack

RePack

Metro:Exodus

!!Акция!!

Alien_Rage

RePack

fifa19

RePack

Assassins Creed: Odyssey

RePack

NEED FOR SPEED™ PAYBACK

3 сезон

9 сезон

Бесстыжие 9 сезон

Все сериалы

все сериалы на PB.wtf

RePack

FAR CRY 5
Ребята, катастрофически не хватает 1900р. для оплаты серверов за Октябрь (всвязи с блокировками трафик упал в 3 раза), 1-2р., выручайте.
  

Аты-баты, шли солдаты... (Леонид Быков ) [1976, драма, военный, DVDRip] pb.wtf

Аты-баты, шли солдаты... через торрент pb.wtf

Размер: 1.36 GB | Добавлен: 3 года 6 мес. назад | Торрент скачан:55 раз
Скачать  

07-05-2015 15:13 Аты-баты, шли солдаты... Скачать торрент  


Аты-баты, шли солдаты...


ИНФОРМАЦИЯ:
Год выпуска:1976
Страна: СССР
Жанр: драма, военный
Продолжительность: 01:22:01
Перевод: Не требуется
Режиссер: Леонид Быков

В Ролях:


Леонид Быков (ефрейтор Виктор Святкин), Владимир Конкин (мл. лейтенант Игорь Суслин), Елена Шанина (Кима), Леонид Бакштаев (Константин Святкин), Евгения Уралова (Анна), Николай Гринько (полковник), Иван Гаврилюк (сержант Сайко), Николай Сектименко (Глебов), Отабек Ганиев (Хабанера), Наталья Наум (Валентина Ивановна), Борис Химичев (сын Ивана Сайко), Нина Кирякова (сестра Крынкина)

Описание:
Они погибли в 1944 году, их было всего восемнадцать человек - комсомольский взвод, остановивший колонну немецких танков.
Трагическое и комедийное, героическое и лирическое сплелись на экране в необычную ткань повествования об отцах, навсегда оставшихся молодыми, и о детях, пришедших туда, где ровно тридцать лет назад приняли свой последний смертный бой самые родные для них люди...

  • Мировая премьера:15 апреля 1977

    ТЕХ.ДАННЫЕ:
    Качество: DVDRip
    Формат: AVI
    Видео кодек: DivX 4
    Аудио кодек: AC3
    Видео: DivX 4, 704x400 (16:9), 1914 kbps, 25 fps, 0,272 bpp
    Аудио: AC3 / 5.1 / 48 kHz / 448 kbps / 16 bit



    Код:

    General
    Complete name                            : D:\Торенты\SHLI SOLDATY\Aty-baty, shli soldaty.avi
    Format                                   : AVI
    Format/Info                              : Audio Video Interleave
    File size                                : 1.36 GiB
    Duration                                 : 1h 22mn
    Overall bit rate                         : 2 372 Kbps
    Writing application                      : VirtualDubMod 1.5.10.2 (build 2540/release)
    Writing library                          : VirtualDubMod build 2540/release

    Video
    ID                                       : 0
    Format                                   : MPEG-4 Visual
    Format profile                           : Advanced Simple@L5
    Format settings, BVOP                    : 2
    Format settings, QPel                    : No
    Format settings, GMC                     : No warppoints
    Format settings, Matrix                  : Default (MPEG)
    Muxing mode                              : Packed bitstream
    Codec ID                                 : DIVX
    Codec ID/Info                            : Project Mayo
    Codec ID/Hint                            : DivX 4
    Duration                                 : 1h 22mn
    Bit rate                                 : 1 915 Kbps
    Width                                    : 704 pixels
    Height                                   : 400 pixels
    Display aspect ratio                     : 16:9
    Frame rate                               : 25.000 fps
    Color space                              : YUV
    Chroma subsampling                       : 4:2:0
    Bit depth                                : 8 bits
    Scan type                                : Progressive
    Compression mode                         : Lossy
    Bits/(Pixel*Frame)                       : 0.272
    Stream size                              : 1.10 GiB (81%)
    Writing library                          : XviD 1.2.1 (UTC 2008-12-04)

    Audio
    ID                                       : 1
    Format                                   : AC-3
    Format/Info                              : Audio Coding 3
    Mode extension                           : CM (complete main)
    Codec ID                                 : 2000
    Duration                                 : 1h 21mn
    Bit rate mode                            : Constant
    Bit rate                                 : 448 Kbps
    Channel(s)                               : 6 channels
    Channel positions                        : Front: L C R, Side: L R, LFE
    Sampling rate                            : 48.0 KHz
    Bit depth                                : 16 bits
    Compression mode                         : Lossy
    Stream size                              : 263 MiB (19%)
    Alignment                                : Split accross interleaves
    Interleave, duration                     : 40 ms (1.00 video frame)
    Interleave, preload duration             : 500 ms

    Скриншоты:


    © Оформление by Ворон
    pb.wtf



  • Скачать Аты-баты, шли солдаты... через торрент http://s018.radikal.ru/i506/1505/78/584f69e17c84.png Скачать фильм Аты-баты, шли солдаты... через торрент бесплантно в хорошем качестве Описание: Они погибли в 1944 году, их было всего восемнадцать человек - комсомольский взвод, остановивший колонну немецких ... 10 10 6
    Торрент: Зарегистрирован [2016-05-09 04:35] · скачан: 55 раз
    Статус: √ проверено
    Размер: 1.36 GB
    Как cкачать? Как скачать Аты-баты, шли солдаты... через торрент | qTorrent

    % Раздел Тема Автор DL S | L
    Кино СССР [ 1.43 GB ] Аты-баты шли солдаты... [1976 военный DVDRip-AVC] Ворон Скачать
    1 | 0


    >> Регистрируемся здесь <<






    Отзывы и комментарии о схеме читаем и пишем здесь: ---> Отзывы и комментарии о схеме

    Новые благодарочки в телеграм довольных пользователей:
    скриншот   скриншот   скриншот   скриншот   скриншот

    07-05-2015 16:28 Аты-баты, шли солдаты... Скачать торрент  

    ...нам бы кралю хоть одну...!pb.wtf



      Дорогой пользователь! Огромная просьба, поблагодарите релизера, оцените раздачу и оставьте свои комментарий, если Вы скачали Аты-баты, шли солдаты... через торрент бесплатно! Внесите свою лепту в развитие PiratBit!
      Комментировать посты могут только пользователи прошедшие не сложную регистрацию
      Показать сообщения:    

      Аты-баты, шли солдаты... через торрент
      Скачать бесплатно Аты-баты, шли солдаты...
      Аты-баты, шли солдаты... скачать торрент
      Аты-баты, шли солдаты... смотреть онлайн
      Cкачать фильм Аты-баты, шли солдаты... бесплатно
      Аты-баты, шли солдаты... скачать торрент в хорошем качестве
      Аты-баты, шли солдаты... смотреть онлайн бесплатно в хорошем качестве


      Вы не можете начинать темы
      Вы не можете отвечать на сообщения
      Вы не можете редактировать свои сообщения
      Вы не можете удалять свои сообщения
      Вы не можете голосовать в опросах
      Вы не можете прикреплять файлы к сообщениям
      Вы можете скачивать файлы