новый адрес
Мега распродажа FORZA HORIZON 4 ULTIMATE+ВСЕ DLC+ОНЛАЙН всего за 499р. 349 руб. (супер цена). Внимание количество ограничено!!!

iTunes

1+1

iTunes

мы

iTunes

1

iTunes

Чернобыль

iTunes

Ральф против интернета

Лицензия

ПШазам

Лицензия

Игра престолов

Лицензия

30
pack

ВАЖНО

!!Акция!!

Alien_RageХит недели

RePack

Resident Evil 21

ИГРА 18+

pack

RePack

Metro:Exodus

!!Акция!!

Alien_Rage

RePack

fifa19

RePack

Assassins Creed: Odyssey

RePack

NEED FOR SPEED™ PAYBACK

3 сезон

9 сезон

Бесстыжие 9 сезон

Все сериалы

все сериалы на PB.wtf

RePack

FAR CRY 5
Ребята, катастрофически не хватает 1900р. для оплаты серверов за Октябрь (всвязи с блокировками трафик упал в 3 раза), 1-2р., выручайте.
  

В шесть часов вечера после войны (Иван Пырьев ) [1944, мюзикл, драма, мелодрама, DVDRip] pb.wtf

В шесть часов вечера после войны через торрент pb.wtf

Размер: 1.37 GB | Добавлен: 3 года 6 мес. назад | Торрент скачан:19 раз
Скачать  

07-05-2015 15:16 В шесть часов вечера после войны Скачать торрент  


В шесть часов вечера после войны


ИНФОРМАЦИЯ:
Год выпуска:1944
Страна: СССР
Жанр: мюзикл, драма, мелодрама, военный
Продолжительность: 01:27:20
Перевод: Не требуется
Режиссер: Иван Пырьев

В Ролях:


Евгений Самойлов (лейтенант Василий Кудряшов), Марина Ладынина (Варя Панкова), Иван Любезнов (лейтенант Павел Демидов), Ариадна Лысак (Феня, подруга Вари), Елена Савицкая (тетя Катя, управдом), Александр Антонов (командир), Людмила Семенова (зенитчица), Тихон Хренников, Александра Данилова (зенитчица), Евгений Моргунов (артиллерист), Ирина Мурзаева (пианистка, жительница дома №5), Михаил Пуговкин (артиллерист)

Описание:
Расставаясь, они обещали друг другу встретиться в шесть часов вечера после войны на Каменном мосту в Москве. Пять долгих и невыносимо тяжелых лет артиллерист Вася Кудряшов и зенитчица Варя Панкова ждали этой встречи. Верили в нее даже тогда, когда смерть подходила слишком близко. И эта вера помогла им выжить. Судьба вознаградила молодых людей за силу, мужество и терпение...

  • Мировая премьера:16 ноября 1944

    ТЕХ.ДАННЫЕ:
    Качество: DVDRip
    Формат: AVI
    Видео кодек: XviD
    Аудио кодек: AC3
    Видео: XviD, 720x544 (4:3), 2008 kbps, 25 fps, 0,205 bpp
    Аудио: AC3 / 2.0 / 48 kHz / 224 kbps / 16 bit



    Код:

    General
    Complete name                            : D:\Торенты\MS_V_6_chasov_vech_posl_Voiny.DVDRip\MS_V_6_vech_posle_voiny_DVDRip.avi
    Format                                   : AVI
    Format/Info                              : Audio Video Interleave
    File size                                : 1.37 GiB
    Duration                                 : 1h 27mn
    Overall bit rate                         : 2 240 Kbps
    Writing application                      : VirtualDubMod 1.5.4.1 (build 2178/release)
    Writing library                          : VirtualDubMod build 2178/release

    Video
    ID                                       : 0
    Format                                   : MPEG-4 Visual
    Format profile                           : Advanced Simple@L5
    Format settings, BVOP                    : 1
    Format settings, QPel                    : No
    Format settings, GMC                     : No warppoints
    Format settings, Matrix                  : Custom
    Codec ID                                 : XVID
    Codec ID/Hint                            : XviD
    Duration                                 : 1h 27mn
    Bit rate                                 : 2 009 Kbps
    Width                                    : 720 pixels
    Height                                   : 544 pixels
    Display aspect ratio                     : 4:3
    Frame rate                               : 25.000 fps
    Color space                              : YUV
    Chroma subsampling                       : 4:2:0
    Bit depth                                : 8 bits
    Scan type                                : Progressive
    Compression mode                         : Lossy
    Bits/(Pixel*Frame)                       : 0.205
    Stream size                              : 1.23 GiB (90%)
    Writing library                          : XviD 1.2.0.dev47 (UTC 2006-11-01)

    Audio
    ID                                       : 1
    Format                                   : AC-3
    Format/Info                              : Audio Coding 3
    Mode extension                           : CM (complete main)
    Codec ID                                 : 2000
    Duration                                 : 1h 27mn
    Bit rate mode                            : Constant
    Bit rate                                 : 224 Kbps
    Channel(s)                               : 2 channels
    Channel positions                        : Front: L R
    Sampling rate                            : 48.0 KHz
    Bit depth                                : 16 bits
    Compression mode                         : Lossy
    Stream size                              : 140 MiB (10%)
    Alignment                                : Split accross interleaves
    Interleave, duration                     : 96 ms (2.40 video frames)
    Interleave, preload duration             : 96 ms

    Скриншоты:


    © Оформление by Ворон
    pb.wtf



  • Скачать В шесть часов вечера после войны через торрент http://s018.radikal.ru/i506/1505/78/584f69e17c84.png Скачать фильм В шесть часов вечера после войны через торрент бесплантно в хорошем качестве Описание: Расставаясь, они обещали друг другу встретиться в шесть часов вечера после войны на Каменном мосту в Москве. Пять долгих и ... 10 10 3
    Торрент: Зарегистрирован [2016-05-09 04:36] · скачан: 19 раз
    Статус: √ проверено
    Размер: 1.37 GB
    Как cкачать? Как скачать В шесть часов вечера после войны через торрент | qTorrent


    >> Регистрируемся здесь <<






    Отзывы и комментарии о схеме читаем и пишем здесь: ---> Отзывы и комментарии о схеме

    Новые благодарочки в телеграм довольных пользователей:
    скриншот   скриншот   скриншот   скриншот   скриншот
      Дорогой пользователь! Огромная просьба, поблагодарите релизера, оцените раздачу и оставьте свои комментарий, если Вы скачали В шесть часов вечера после войны через торрент бесплатно! Внесите свою лепту в развитие PiratBit!
      Комментировать посты могут только пользователи прошедшие не сложную регистрацию
      Показать сообщения:    

      В шесть часов вечера после войны через торрент
      Скачать бесплатно В шесть часов вечера после войны
      В шесть часов вечера после войны скачать торрент
      В шесть часов вечера после войны смотреть онлайн
      Cкачать фильм В шесть часов вечера после войны бесплатно
      В шесть часов вечера после войны скачать торрент в хорошем качестве
      В шесть часов вечера после войны смотреть онлайн бесплатно в хорошем качестве


      Вы не можете начинать темы
      Вы не можете отвечать на сообщения
      Вы не можете редактировать свои сообщения
      Вы не можете удалять свои сообщения
      Вы не можете голосовать в опросах
      Вы не можете прикреплять файлы к сообщениям
      Вы можете скачивать файлы