новый адрес
Мега распродажа FORZA HORIZON 4 ULTIMATE+ВСЕ DLC+ОНЛАЙН всего за 499р. 349 руб. (супер цена). Внимание количество ограничено!!!

iTunes

1+1

iTunes

мы

iTunes

1

iTunes

Чернобыль

iTunes

Ральф против интернета

Лицензия

ПШазам

Лицензия

Оно 2

Лицензия

30
pack

ВАЖНО

!!Акция!!

Alien_RageХит недели

RePack

Resident Evil 21

ИГРА 18+

pack

RePack

Metro:Exodus

!!Акция!!

Alien_Rage

RePack

fifa19

RePack

Assassins Creed: Odyssey

RePack

NEED FOR SPEED™ PAYBACK

3 сезон

9 сезон

Бесстыжие 9 сезон

Все сериалы

все сериалы на PB.wtf

RePack

FAR CRY 5
Ребята, катастрофически не хватает 1900р. для оплаты серверов за Октябрь (всвязи с блокировками трафик упал в 3 раза), 1-2р., выручайте.
  

Небесный тихоход (Семен Тимошенко ) [1945, комедия, военный, BDRip] pb.wtf

Небесный тихоход через торрент pb.wtf

Размер: 1.46 GB | Добавлен: 3 года 6 мес. назад | Торрент скачан:51 раз
Скачать  

07-05-2015 15:20 Небесный тихоход Скачать торрент  


Небесный тихоход


ИНФОРМАЦИЯ:
Год выпуска:1945
Страна: СССР
Жанр: комедия, военный
Продолжительность: 01:23:19
Перевод: Не требуется
Режиссер: Семен Тимошенко

В Ролях:


Николай Крючков (майор Булочкин), Василий Меркурьев (ст. лейтенант Туча), Василий Нещипленко (капитан Кайсаров), Алла Парфаньяк (корреспондент Валя), Людмила Глазова (ст. лейтенант Кутузова), Тамара Алешина (ст. лейтенант Светлова), Яков Гудкин (в титрах не указан), Фаина Раневская (в титрах не указана), Константин Скоробогатов (в титрах не указан), Семен Тимошенко (в титрах не указан), Анатолий Алексеев (в титрах не указан)

Описание:
Три друга, летчики-офицеры, поклялись не любить до конца войны. Однако военная служба познакомила их с летчицами женской эскадрильи. И друзья один за другим начали сдавать свои позиции.
После тяжелого ранения летчик Булочкин вынужден летать не на скоростном истребителе, а на «тихоходе» У-2. Привыкший к опасностям Булочкин с трудом привыкает к спокойной жизни в эскадрилье, где большинство летчиков - девушки. Но вскоре становится ясно, что на войне важны и «тихоходы».

  • Мировая премьера:1 апреля 1946

    ТЕХ.ДАННЫЕ:
    Качество: BDRip
    Формат: AVI
    Видео кодек: XviD
    Аудио кодек: AC3
    Видео: XviD, 720x544 (4:3), 1891 kbps, 23,976 fps, 0,201 bpp
    Аудио: AC3 / 5.1 / 48 kHz / 448 kbps / 16 bit



    Код:

    General
    Complete name                            : D:\Торенты\Раздачи\Nebesnyj.tihohod.1945.XviD.BDRip.avi
    Format                                   : AVI
    Format/Info                              : Audio Video Interleave
    File size                                : 1.37 GiB
    Duration                                 : 1h 23mn
    Overall bit rate                         : 2 349 Kbps
    Movie name                               : Небесный тихоход (Цветная версия) / 1945
    Director                                 : Release by ==nnlabetik==
    Writing application                      : VirtualDubMod 1.5.10.2 (build 2540/release)
    Writing library                          : VirtualDubMod build 2540/release

    Video
    ID                                       : 0
    Format                                   : MPEG-4 Visual
    Format profile                           : Advanced Simple@L5
    Format settings, BVOP                    : 1
    Format settings, QPel                    : No
    Format settings, GMC                     : No warppoints
    Format settings, Matrix                  : Custom
    Codec ID                                 : XVID
    Codec ID/Hint                            : XviD
    Duration                                 : 1h 23mn
    Bit rate                                 : 1 891 Kbps
    Width                                    : 720 pixels
    Height                                   : 544 pixels
    Display aspect ratio                     : 4:3
    Frame rate                               : 23.976 fps
    Color space                              : YUV
    Chroma subsampling                       : 4:2:0
    Bit depth                                : 8 bits
    Scan type                                : Progressive
    Compression mode                         : Lossy
    Bits/(Pixel*Frame)                       : 0.201
    Stream size                              : 1.10 GiB (81%)
    Writing library                          : XviD 1.2.1 (UTC 2008-12-04)

    Audio
    ID                                       : 1
    Format                                   : AC-3
    Format/Info                              : Audio Coding 3
    Mode extension                           : CM (complete main)
    Codec ID                                 : 2000
    Duration                                 : 1h 23mn
    Bit rate mode                            : Constant
    Bit rate                                 : 448 Kbps
    Channel(s)                               : 6 channels
    Channel positions                        : Front: L C R, Side: L R, LFE
    Sampling rate                            : 48.0 KHz
    Bit depth                                : 16 bits
    Compression mode                         : Lossy
    Delay relative to video                  : 15ms
    Stream size                              : 267 MiB (19%)
    Alignment                                : Split accross interleaves
    Interleave, duration                     : 42 ms (1.00 video frame)
    Interleave, preload duration             : 500 ms

    Скриншоты:


    © Оформление by Ворон
    pb.wtf



  • Скачать Небесный тихоход через торрент http://s018.radikal.ru/i506/1505/78/584f69e17c84.png Скачать фильм Небесный тихоход через торрент бесплантно в хорошем качестве Описание: Три друга, летчики-офицеры, поклялись не любить до конца войны. Однако военная служба познакомила их с летчицами женской ... 9.9 10 10
    Торрент: Зарегистрирован [2016-05-09 04:36] · скачан: 51 раз
    Статус: √ проверено
    Размер: 1.46 GB
    Как cкачать? Как скачать Небесный тихоход через торрент | qTorrent

    % Раздел Тема Автор DL S | L
    Кино СССР [ 1.46 GB ] Небесный тихоход [1945 Военный HDRip] Mr. Freeman Скачать
    1 | 0


    >> Регистрируемся здесь <<






    Отзывы и комментарии о схеме читаем и пишем здесь: ---> Отзывы и комментарии о схеме

    Новые благодарочки в телеграм довольных пользователей:
    скриншот   скриншот   скриншот   скриншот   скриншот

    07-05-2015 15:31 Небесный тихоход Скачать торрент  

    я не знаю слов ,фильм ........pb.wtf



      Дорогой пользователь! Огромная просьба, поблагодарите релизера, оцените раздачу и оставьте свои комментарий, если Вы скачали Небесный тихоход через торрент бесплатно! Внесите свою лепту в развитие PiratBit!
      Комментировать посты могут только пользователи прошедшие не сложную регистрацию
      Показать сообщения:    

      Небесный тихоход через торрент
      Скачать бесплатно Небесный тихоход
      Небесный тихоход скачать торрент
      Небесный тихоход смотреть онлайн
      Cкачать фильм Небесный тихоход бесплатно
      Небесный тихоход скачать торрент в хорошем качестве
      Небесный тихоход смотреть онлайн бесплатно в хорошем качестве


      Вы не можете начинать темы
      Вы не можете отвечать на сообщения
      Вы не можете редактировать свои сообщения
      Вы не можете удалять свои сообщения
      Вы не можете голосовать в опросах
      Вы не можете прикреплять файлы к сообщениям
      Вы можете скачивать файлы