2 сезон

iTunes

1 сезон

1

iTunes

iTunes

iTunes

1 сезон

RePack

30

ИГРА 18+

pack

ВАЖНО

!!Акция!!

Alien_RageХит недели

RePack

MK11
pack

Забери бонус

RePack

jed

!!Акция!!

Alien_Rage

RePack

fifa19

RePack

Assassins Creed: Odyssey

RePack

NEED FOR SPEED™ PAYBACK

4 сезон

9 сезон

Бесстыжие 9 сезон

Все сериалы

все сериалы на PB.wtf

RePack

FAR CRY 5
  

Письма с Иводзимы / Letters from Iwo Jima (Клинт Иствуд) [2006 г., драма, военный, история, BDRip 720p] 2xMVO (Rus, Ukr) + DVO + AVO pb.wtf

Письма с Иводзимы через торрент pb.wtf

Качают: 1 [ 0 KB/s ]
Размер: 6.94 GB | Добавлен: 5 лет 5 мес. назад | Торрент скачан:80 раз
Скачать  

08-05-2015 16:14 Письма с Иводзимы Скачать торрент  

Письма с Иводзимы / Letters from Iwo Jima
Год выпуска: 2006
Страна: США
Жанр: драма, военный, история
Продолжительность: 02:20:37
Перевод: Профессиональный многоголосый; Профессиональный двухголосый; Авторский одноголосый
Субтитры: Russian (R5), Russian (Киномания), Ukrainian (R5), English

Режиссер: Клинт Иствуд
Продюссер: Клинт Иствуд, Роберт Лоренц, Стивен Спилберг
Сценарий: Ирис Йамашита, Пол Хаггис, Тадамити Курибаяси

Бюджет: $19 000 000
Премьера в мире: 15 ноября 2006










В ролях: Кен Ватанабе, Кадзунари Ниномия, Рё Касэ, Цуёси Ихара, Сидо Накамура, Хироши Ватанабэ, Такуми Бандо, Юки Мацудзаки, Такаши Ямагути, Эйдзиро Озаки




Описание: Другой взгляд на трагическую битву при Иводзиме, ставшую не только историческим событием, переломным моментом в ходе Тихоокеанской кампании США против Японии, но и столкновением культур и мировоззрений.

Февраль 1945-го. Война в Европе подходила к концу, а на тихоокеанском направлении она была в самом разгаре. Островок Иводзима стал для США последним плацдармом на пути к Японии, и битва за него стала одним из самых кровопролитных сражений кампании. Этот фильм показывает нам битву за остров глазами японских солдат и офицеров, которые до последней капли крови защищали свою землю и погибли во славу Японской Империи.





Сохранены оригинальные главы как на Blu-ray.
Dirty lines fixed with overlay method.
Огромная благодарность в адрес s_white за подбор необходимых шрифтов и за лицензионный двд-диск R5.
За помощь с выкачиванием оригинального диска из юзенета спасибо Slipknot_cooler.
Дорожки №2,3 получены наложением чистых голосов на центр декодированного Dolby TrueHD.
За украинскую дорожку благодарим ресурс Hurtom.





Качество: BDRip 720p
Формат: MKV
Видео кодек: H.264
Аудио кодек: AC3
Видео: 1280x536 at 23.976 fps,2pass, ~4500 kbps avg
Аудио#1: Russian: 48 kHz, AC3, 3/2 (L,C,R,l,r) + LFE ch, ~448.00 kbps avg |Многоголосый закадровый, Киномания|
Аудио#2: Russian: 48 kHz, AC3, 3/2 (L,C,R,l,r) + LFE ch, ~640.00 kbps avg |Одноголосый закадровый, Ю.Сербин|
Аудио#3: Russian: 48 kHz, AC3, 3/2 (L,C,R,l,r) + LFE ch, ~640.00 kbps avg |Двухголосый закадровый, П.Гланц и И.Королева|
Аудио#4: Ukrainian: 48 kHz, AC3, 2/0 (L,R) ch, ~192 kbps avg |Многоголосый закадровый, Iнтер|
Аудио#5: Japanese: 48 kHz, AC3, 3/2 (L,C,R,l,r) + LFE ch, ~640.00 kbps avg
Релиз от:

Код:

General
Unique ID                                : 204606738628314213634231138281145883577 (0x99EDD310C7462E41A0B74A32A879DBB9)
Complete name                            : H:Letters.from.Iwo.Jima.2006.720p.BDRip.3xRus.Ukr.Jap.HDCLUB.mkv
Format                                   : Matroska
Format version                           : Version 4 / Version 2
File size                                : 6.94 GiB
Duration                                 : 2h 20mn
Overall bit rate                         : 7 063 Kbps
Movie name                               : Letters from Iwo Jima (2006) - Release for HDCLUB by vlaluk
Encoded date                             : UTC 2015-05-08 04:11:25
Writing application                      : mkvmerge v7.8.0 ('River Man') 32bit built on Mar 27 2015 16:18:02
Writing library                          : libebml v1.3.1 + libmatroska v1.4.2

Video
ID                                       : 1
Format                                   : AVC
Format/Info                              : Advanced Video Codec
Format profile                           : High@L4.1
Format settings, CABAC                   : Yes
Format settings, ReFrames                : 12 frames
Codec ID                                 : V_MPEG4/ISO/AVC
Duration                                 : 2h 20mn
Bit rate                                 : 4 500 Kbps
Width                                    : 1 280 pixels
Height                                   : 536 pixels
Display aspect ratio                     : 2.40:1
Frame rate mode                          : Constant
Frame rate                               : 23.976 fps
Color space                              : YUV
Chroma subsampling                       : 4:2:0
Bit depth                                : 8 bits
Scan type                                : Progressive
Bits/(Pixel*Frame)                       : 0.274
Stream size                              : 4.29 GiB (62%)
Title                                    : Letters from Iwo Jima (2006) - Release for HDCLUB by vlaluk
Writing library                          : x264 core 144 r2525 40bb568
Encoding settings                        : cabac=1 / ref=12 / deblock=1:-3:-3 / analyse=0x3:0x113 / me=umh / subme=10 / psy=1 / psy_rd=1.00:0.00 / mixed_ref=1 / me_range=48 / chroma_me=1 / trellis=2 / 8x8dct=1 / cqm=1 / deadzone=21,11 / fast_pskip=0 / chroma_qp_offset=-1 / threads=6 / lookahead_threads=1 / sliced_threads=0 / nr=0 / decimate=1 / interlaced=0 / bluray_compat=0 / constrained_intra=0 / bframes=8 / b_pyramid=2 / b_adapt=2 / b_bias=0 / direct=3 / weightb=1 / open_gop=0 / weightp=2 / keyint=230 / keyint_min=23 / scenecut=40 / intra_refresh=0 / rc_lookahead=40 / rc=2pass / mbtree=0 / bitrate=4500 / ratetol=1.0 / qcomp=0.60 / qpmin=2 / qpmax=48 / qpstep=4 / cplxblur=20.0 / qblur=0.5 / vbv_maxrate=62500 / vbv_bufsize=78125 / nal_hrd=none / filler=0 / ip_ratio=1.00 / pb_ratio=1.00 / aq=3:0.65
Language                                 : English
Default                                  : Yes
Forced                                   : No

Audio #1
ID                                       : 2
Format                                   : AC-3
Format/Info                              : Audio Coding 3
Mode extension                           : CM (complete main)
Format settings, Endianness              : Big
Codec ID                                 : A_AC3
Duration                                 : 2h 20mn
Bit rate mode                            : Constant
Bit rate                                 : 448 Kbps
Channel(s)                               : 6 channels
Channel positions                        : Front: L C R, Side: L R, LFE
Sampling rate                            : 48.0 KHz
Bit depth                                : 16 bits
Compression mode                         : Lossy
Stream size                              : 451 MiB (6%)
Title                                    : DD 5.1 @ 448 Kbps @ Многоголосый закадровый, Киномания
Language                                 : Russian
Default                                  : Yes
Forced                                   : No

Audio #2
ID                                       : 3
Format                                   : AC-3
Format/Info                              : Audio Coding 3
Mode extension                           : CM (complete main)
Format settings, Endianness              : Big
Codec ID                                 : A_AC3
Duration                                 : 2h 20mn
Bit rate mode                            : Constant
Bit rate                                 : 640 Kbps
Channel(s)                               : 6 channels
Channel positions                        : Front: L C R, Side: L R, LFE
Sampling rate                            : 48.0 KHz
Bit depth                                : 16 bits
Compression mode                         : Lossy
Stream size                              : 644 MiB (9%)
Title                                    : DD 5.1 @ 640 Kbps @ Одноголосый закадровый, Ю.Сербин
Language                                 : Russian
Default                                  : No
Forced                                   : No

Audio #3
ID                                       : 4
Format                                   : AC-3
Format/Info                              : Audio Coding 3
Mode extension                           : CM (complete main)
Format settings, Endianness              : Big
Codec ID                                 : A_AC3
Duration                                 : 2h 20mn
Bit rate mode                            : Constant
Bit rate                                 : 640 Kbps
Channel(s)                               : 6 channels
Channel positions                        : Front: L C R, Side: L R, LFE
Sampling rate                            : 48.0 KHz
Bit depth                                : 16 bits
Compression mode                         : Lossy
Stream size                              : 644 MiB (9%)
Title                                    : DD 5.1 @ 640 Kbps @ Двухголосый закадровый, П.Гланц и И.Королева
Language                                 : Russian
Default                                  : No
Forced                                   : No

Audio #4
ID                                       : 5
Format                                   : AC-3
Format/Info                              : Audio Coding 3
Mode extension                           : CM (complete main)
Format settings, Endianness              : Big
Codec ID                                 : A_AC3
Duration                                 : 2h 20mn
Bit rate mode                            : Constant
Bit rate                                 : 192 Kbps
Channel(s)                               : 2 channels
Channel positions                        : Front: L R
Sampling rate                            : 48.0 KHz
Bit depth                                : 16 bits
Compression mode                         : Lossy
Stream size                              : 193 MiB (3%)
Title                                    : DD 2.0 @ 192 Kbps @ Многоголосый закадровый, Iнтер
Language                                 : Ukrainian
Default                                  : No
Forced                                   : No

Audio #5
ID                                       : 6
Format                                   : AC-3
Format/Info                              : Audio Coding 3
Mode extension                           : CM (complete main)
Format settings, Endianness              : Big
Codec ID                                 : A_AC3
Duration                                 : 2h 20mn
Bit rate mode                            : Constant
Bit rate                                 : 640 Kbps
Channel(s)                               : 6 channels
Channel positions                        : Front: L C R, Side: L R, LFE
Sampling rate                            : 48.0 KHz
Bit depth                                : 16 bits
Compression mode                         : Lossy
Stream size                              : 644 MiB (9%)
Title                                    : DD 5.1 @ 640 Kbps
Language                                 : Japanese
Default                                  : No
Forced                                   : No

Text #1
ID                                       : 7
Format                                   : UTF-8
Codec ID                                 : S_TEXT/UTF8
Codec ID/Info                            : UTF-8 Plain Text
Title                                    : Russian @ SRT @ R5
Language                                 : Russian
Default                                  : No
Forced                                   : No

Text #2
ID                                       : 8
Format                                   : UTF-8
Codec ID                                 : S_TEXT/UTF8
Codec ID/Info                            : UTF-8 Plain Text
Title                                    : Russian @ SRT @ Киномания
Language                                 : Russian
Default                                  : No
Forced                                   : No

Text #3
ID                                       : 9
Format                                   : UTF-8
Codec ID                                 : S_TEXT/UTF8
Codec ID/Info                            : UTF-8 Plain Text
Title                                    : Ukrainian @ SRT @ R5
Language                                 : Ukrainian
Default                                  : No
Forced                                   : No

Text #4
ID                                       : 10
Format                                   : UTF-8
Codec ID                                 : S_TEXT/UTF8
Codec ID/Info                            : UTF-8 Plain Text
Title                                    : English @ SRT
Language                                 : English
Default                                  : No
Forced                                   : No

Menu
00:00:00.000                             : en:We Soldiers Dig
00:05:12.145                             : en:Kuribiyashi's Arrival
00:10:40.640                             : en:Coordination for Real War
00:13:15.628                             : en:Embarassments
00:17:18.329                             : en:Nishi's Honest Opinion
00:23:44.381                             : en:Change in Strategy
00:27:26.228                             : en:A Kempeitai Among Us
00:31:59.584                             : en:Your Dad Will Come Home
00:37:59.861                             : en:Until We Are Dead
00:41:05.922                             : en:Enemy Bombs
00:47:07.658                             : en:Address to the Troops
00:51:15.698                             : en:Belts From Home
00:54:13.083                             : en:Emptying the Pot
00:57:00.500                             : en:Enemy Landing
01:00:20.450                             : en:Life and Death Orders
01:04:22.692                             : en:Die with Honor
01:09:10.813                             : en:Inflamed
01:11:04.177                             : en:Run for Motoyama
01:13:53.220                             : en:At Sword's Point
01:17:02.660                             : en:Who's In Charge Here?
01:22:35.159                             : en:No Reinforcements
01:24:57.801                             : en:Questioning Sam
01:28:59.042                             : en:Shimizu's Disgrace
01:34:18.111                             : en:Farewell Party
01:37:01.024                             : en:Just a Letter
01:38:59.976                             : en:Nishi's Farewell
01:45:49.260                             : en:Surrender with Me
01:50:14.691                             : en:Let This Be a Lesson
01:55:28.922                             : en:You Look Familiar
01:58:44.951                             : en:Song From the Homeland
02:03:17.181                             : en:Final Attack
02:07:05.243                             : en:Still Japan
02:13:24.205                             : en:Rediscovered Voices; End Credits


pb.wtf



Скачать Письма с Иводзимы через торрент http://pic.kartinco.top/images/11/v6yrt.jpg Скачать фильм Письма с Иводзимы через торрент бесплантно в хорошем качестве Описание: Другой взгляд на трагическую битву при Иводзиме, ставшую не только историческим событием, переломным моментом в ходе ... 9.4 10 7
Info! Золотая раздача, скачанное не засчитывается.
Торрент: Зарегистрирован [2015-05-08 16:14] · скачан: 80 раз
Статус: √ проверено
Размер: 6.94 GB
Как cкачать? Как скачать Письма с Иводзимы через торрент | qTorrent

% Раздел Тема Автор DL S | L
Фильмы [HD 720p, 1080p] (Хороший звук DUB, MVO) [ 11.33 GB ] Письма с Иводзимы / Letters from Iwo Jima [2006 военный история BDRip 1080p от _denis_100 | NNNB] MVO + DVO + AVO + Original + Sub _denis_100 Скачать
1 | 0

28-11-2019 20:33  

Отключить всю рекламу на сайте

06-03-2016 15:11 Письма с Иводзимы Скачать торрент  

Дайте скорости пожалуйстаpb.wtf



    Дорогой пользователь! Огромная просьба, поблагодарите релизера, оцените раздачу и оставьте свои комментарий, если Вы скачали Письма с Иводзимы через торрент бесплатно! Внесите свою лепту в развитие PiratBit!
    Комментировать посты могут только пользователи прошедшие не сложную регистрацию
    Показать сообщения:    

    Письма с Иводзимы через торрент
    Скачать бесплатно Письма с Иводзимы
    Письма с Иводзимы скачать торрент
    Письма с Иводзимы смотреть онлайн
    Cкачать фильм Письма с Иводзимы бесплатно
    Письма с Иводзимы скачать торрент в хорошем качестве
    Письма с Иводзимы смотреть онлайн бесплатно в хорошем качестве


    Вы не можете начинать темы
    Вы не можете отвечать на сообщения
    Вы не можете редактировать свои сообщения
    Вы не можете удалять свои сообщения
    Вы не можете голосовать в опросах
    Вы не можете прикреплять файлы к сообщениям
    Вы можете скачивать файлы